Гнев Титанов / Wrath of the Titans (Джонатан Либесман) [2012, фэнтези, боевик, приключения, BDRip 1080p]

Ответить на тему
 
Автор
Сообщение

diim ®

Пол:

Стаж: 2 года 6 месяцев

Сообщений: 1034

Репутация: 112 [+] [-]

Пост 17-Июн-2012 12:36

[Цитировать] 

Гнев Титанов / Wrath of the TitansГод выпуска: 2012
Страна: США
Слоган: «Ощути их ярость»
Жанр: фэнтези, боевик, приключения
Продолжительность: 01:39:39
Перевод: Профессиональный (полное дублирование)
Субтитры: Английские
Режиссер: Джонатан Либесман
Сценарий: Дэн Мазо, Дэвид Джонсон, Беверли Кросс, Грег Берланти
Продюсер: Бэзил Иваник, Полли Коэн, Кевин Де Ла Ной, Джон Дж. Джашни, Луи Летерье
Оператор: Бен Дэвис
Композитор: Хавьер Наваррете
В ролях: Сэм Уортингтон, Лиам Нисон, Рэйф Файнс, Эдгар Рамирез, Тоби Кеббелл, Розамунд Пайк, Билл Найи, Дэнни Хьюстон, Джон Белл, Лили Джеймс, Алехандро Нараньо, Freddy Drabble
Дублёры: Сергей Бурунов, Алексей Рязанцев, Владимир Зайцев, Даниил Эльдаров, Сергей Смирнов, Татьяна Шитова, Леонид Белозорович, Анастасия Нестеренко, Ефим Клиновский-Бюджет: $150 000 000
Сборы в США: $83 441 518
Сборы в России: $22 324 540
Сборы в мире: $301 741 518
Мировая премьера: 28 марта 2012
Релиз на DVD: 12 июля 2012, «CP Дистрибуция»
Релиз на Blu-ray: 12 июля 2012, «CP Дистрибуция»-Описание: Прошло десять лет после героического поражения Персеем морского чудовища Кракена, теперь он живет спокойной жизнью деревенского рыбака и воспитывает своего 10-летнего сына.
Тем временем, бушует борьба за превосходство между Богами и Титанами. Опасно ослабленные нехваткой человеческой любви и преданности, Боги теряют контроль над заключенными в тюрьму Титанами и их свирепым лидером, Кроносом, отцом правящих братьев Зевса, Аида и Посейдона. Давным-давно триумвират сверг своего сильного отца, отправив его гнить в мрачную пропасть Тартар, темницу, находящуюся в глубоких пределах подземного мира.
Персей не может остаться в стороне, когда Аид вместе с сыном Зевса, Аресом, заключают сделку с Кроносом, чтобы вместе уничтожить Зевса. Сила Титанов становится ещё больше, в то время как Зевс теряет свою мощь и власть, а по Земле раскидывается ад подземного мира.
Вместе с Андромедой, полубогом Агенором, сыном Посейдона и низвергнутым богом Гефестом,- Персей отправляется в опасное и отважное путешествие в подземный мир, чтобы спасти Зевса, свергнуть Титанов и сохранить людской род.- 6.0/10 (27,168 users) 6.039 (8 073)
MPAA: - Детям до 13 лет просмотр не желателен-

NFO

Format : Matroska
Format version : Version 2
File size : 10.1 GiB
Duration : 1h 39mn
Overall bit rate : 14.6 Mbps
Encoded date : UTC 2012-06-14 11:38:18
Writing application : mkvmerge v2.9.7 ('Tenderness') built on Jul 13 2009 22:24:14
Writing library : libebml v0.7.7 + libmatroska v0.8.1
Video
ID : 1
Format : AVC
Format/Info : Advanced Video Codec
Format profile : High@L4.1
Format settings, CABAC : Yes
Format settings, ReFrames : 4 frames
Codec ID : V_MPEG4/ISO/AVC
Duration : 1h 39mn
Bit rate : 12.6 Mbps
Width : 1 920 pixels
Height : 1 080 pixels
Display aspect ratio : 16:9
Frame rate : 23.976 fps
Color space : YUV
Chroma subsampling : 4:2:0
Bit depth : 8 bits
Scan type : Progressive
Bits/(Pixel*Frame) : 0.253
Stream size : 8.56 GiB (85%)
Writing library : x264 core 125 r2200 999b753
Encoding settings : cabac=1 / ref=4 / deblock=1:-3:-3 / analyse=0x3:0x113 / me=umh / subme=11 / psy=1 / psy_rd=1.10:0.00 / mixed_ref=1 / me_range=32 / chroma_me=1 / trellis=2 / 8x8dct=1 / cqm=0 / deadzone=21,11 / fast_pskip=0 / chroma_qp_offset=-2 / threads=18 / lookahead_threads=3 / sliced_threads=0 / nr=0 / decimate=0 / interlaced=0 / bluray_compat=0 / constrained_intra=0 / bframes=8 / b_pyramid=2 / b_adapt=2 / b_bias=0 / direct=3 / weightb=1 / open_gop=0 / weightp=2 / keyint=240 / keyint_min=24 / scenecut=40 / intra_refresh=0 / rc_lookahead=120 / rc=2pass / mbtree=1 / bitrate=12600 / ratetol=1.0 / qcomp=0.70 / qpmin=0 / qpmax=69 / qpstep=4 / cplxblur=20.0 / qblur=0.5 / ip_ratio=1.40 / aq=1:0.80
Language : English
Default : Yes
Forced : No
Audio #1
ID : 2
Format : AC-3
Format/Info : Audio Coding 3
Mode extension : CM (complete main)
Codec ID : A_AC3
Duration : 1h 39mn
Bit rate mode : Constant
Bit rate : 448 Kbps
Channel(s) : 6 channels
Channel positions : Front: L C R, Side: L R, LFE
Sampling rate : 48.0 KHz
Bit depth : 16 bits
Compression mode : Lossy
Stream size : 319 MiB (3%)
Title : AC3, 448 Kb/s (6 ch)
Language : Russian
Default : Yes
Forced : No
Audio #2
ID : 3
Format : DTS
Format/Info : Digital Theater Systems
Codec ID : A_DTS
Duration : 1h 39mn
Bit rate mode : Constant
Bit rate : 1 510 Kbps
Channel(s) : 6 channels
Channel positions : Front: L C R, Side: L R, LFE
Sampling rate : 48.0 KHz
Bit depth : 24 bits
Compression mode : Lossy
Delay relative to video : 11ms
Stream size : 1.05 GiB (10%)
Language : English
Default : No
Forced : No
Text
ID : 4
Format : PGS
Codec ID : S_HDMV/PGS
Codec ID/Info : The same subtitle format used on BDs/HD-DVDs
Language : English
Default : Yes
Forced : No
Menu
00:00:00.000 : en:00:00:00.000
00:09:24.856 : en:00:09:24.856
00:20:07.123 : en:00:20:07.123
00:30:53.059 : en:00:30:53.059
00:40:02.316 : en:00:40:02.316
00:48:46.882 : en:00:48:46.882
01:00:21.743 : en:01:00:21.743
01:10:16.420 : en:01:10:16.420
01:19:18.712 : en:01:19:18.712
01:30:33.803 : en:01:30:33.803
-Качество: BDRip 1080p
Формат: MKV
Видео: 1920x1080, 23.976 fps, 12,6 Mbps
Аудио №1: Russian, 48 kHz, AC3 Dolby Digital, 3/2 (L,C,R,l,r) + LFE ch, ~448 kbps
Аудио №2: English, DTS, 1510 kb/s (6 ch)-Дополнительно: Сохранены оригинальные чаптеры как на Blu-ray.-

Скриншоты

[Торрент-статистика]
[Профиль]  [ЛС] 
Показать сообщения:    
Ответить на тему

Текущее время: Сегодня 12:30

Часовой пояс: GMT + 4



Вы не можете начинать темы
Вы не можете отвечать на сообщения
Вы не можете редактировать свои сообщения
Вы не можете удалять свои сообщения
Вы не можете голосовать в опросах
Вы не можете прикреплять файлы к сообщениям
Вы не можете скачивать файлы