Люди в черном 2 / Men in Black II (Барри Зонненфельд / Barry Sonnenfeld) [2002, США, Фантастика, боевик, комедия, BDRemux 1080p] [Лицензия]

Ответить на тему
 
Автор
Сообщение

Black Shtorm ®

Стаж: 5 лет 5 месяцев

Сообщений: 53

Репутация: 15 [+] [-]

Пост 11-Май-2012 14:04

[Цитировать] 

Люди в черном 2 / Men in Black II- Страна: США
Жанр: Фантастика, боевик, комедия
Год выпуска: 2002
Продолжительность: 01:28:08-Перевод 1: Профессиональный (дублированный) Blu-ray CEE
Перевод 2: Профессиональный (многоголосый закадровый) Карусель
Перевод 3: Авторский (одноголосый закадровый) Гланц
Перевод 4: Авторский (одноголосый закадровый) Живов
Перевод 5: Авторский (одноголосый закадровый) А. Гаврилов
Оригинальная аудиодорожка: английский-
  • Режиссер:
Барри Зонненфельд / Barry Sonnenfeld-
  • В ролях:
Томми Ли Джонс, Уилл Смит, Рип Торн, Лара Флинн Бойл, Джонни Ноксвил, Розарио Доусон, Тони Шэлуб, Патрик Варбертон, Джек Келер, Дэвид Кросс-Описание: «Люди в черном 2» продолжает рассказ о приключениях двух элитных полицейских - агента Кея и агента Джея среди инопланетян. Со времени их предыдущих похождений прошло четыре года.
Все эти годы агент Кей вел размеренный образ жизни, в то время как агент Джей продолжал бесстрашно трудиться в рядах самой секретной организации в мире. Расследуя самое обычное дело, агент Джей натыкается на следы дьявольски изощренного заговора, задуманного Серлиной, злобным монстром, обитающим на Земле в образе сексуальнейшей модели.
Когда события принимают угрожающий оборот, агенту Джею приходится обратиться за помощью к своему бывшему напарнику, который мирно трудится в Почтовом Департаменте. За короткое время агенту Джею надо убедить агента Кея помочь ему - ведь только он может помочь спасти Землю от порабощения и уничтожения.--Качество: BDRemux
Формат: MKV
Видео кодек: AVC
Аудио кодек: AC3, DTS, DTS-HD MA
Видео: 1920x1080p (16:9), AVC, 24904 kbps, 23.976 fps, High Profile 4.1
Аудио 1: Russian: Dolby Digital Audio 640 kbps 5.1 / 48 kHz / 640 kbps - дубляж Blu-ray CEE
Аудио 2: Russian: DTS 5.1, 755 кбит/с, 48 khz - (многоголосый закадровый, Карусель)
Аудио 3: Russian: DTS 5.1, 755 кбит/с, 48 khz - (одноголосый закадровый, Гланц)
Аудио 4: Russian: AC3 5.1, 448 кбит/с, 48 khz - (одноголосый закадровый, Живов)
Аудио 5: Russian: DTS 5.1, 755 кбит/с, 48 khz - (одноголосый закадровый, Гаврилов)
Аудио 6: English: DTS-HD Master Audio 2369 kbps 5.1 / 48 kHz / 2369 kbps / 16-bit (DTS Core: 5.1 / 48 kHz / 1509 kbps / 16-bit)
Cубтитры: русские, английские (SRT), русские, английские (PGS)
Чаптеры: есть-

Сэмпл

MediaInfo

General
Unique ID : 212262069289480136478243623712457791329 (0x9FB03001FB0562129C4302F9A1A09761)
Complete name : G:\HD Video\Люди в черном 2 [2002] BDRemux 1080p.mkv
Format : Matroska
Format version : Version 2
File size : 18.9 GiB
Duration : 1h 28mn
Overall bit rate : 30.7 Mbps
Encoded date : UTC 2012-05-06 16:14:44
Writing application : mkvmerge v5.5.0 ('Healer') built on Apr 6 2012 21:43:24
Writing library : libebml v1.2.3 + libmatroska v1.3.0
Video
ID : 1
Format : AVC
Format/Info : Advanced Video Codec
Format profile : High@L4.1
Format settings, CABAC : Yes
Format settings, ReFrames : 2 frames
Codec ID : V_MPEG4/ISO/AVC
Duration : 1h 28mn
Bit rate mode : Variable
Bit rate : 25.2 Mbps
Width : 1 920 pixels
Height : 1 080 pixels
Display aspect ratio : 16:9
Frame rate : 23.976 fps
Color space : YUV
Chroma subsampling : 4:2:0
Bit depth : 8 bits
Scan type : Progressive
Bits/(Pixel*Frame) : 0.506
Stream size : 15.5 GiB (82%)
Audio #1
ID : 2
Format : AC-3
Format/Info : Audio Coding 3
Mode extension : CM (complete main)
Codec ID : A_AC3
Duration : 1h 28mn
Bit rate mode : Constant
Bit rate : 640 Kbps
Channel(s) : 6 channels
Channel positions : Front: L C R, Side: L R, LFE
Sampling rate : 48.0 KHz
Bit depth : 16 bits
Compression mode : Lossy
Stream size : 403 MiB (2%)
Title : Дубляж
Language : Russian
Audio #2
ID : 3
Format : DTS
Format/Info : Digital Theater Systems
Codec ID : A_DTS
Duration : 1h 28mn
Bit rate mode : Constant
Bit rate : 755 Kbps
Channel(s) : 6 channels
Channel positions : Front: L C R, Side: L R, LFE
Sampling rate : 48.0 KHz
Bit depth : 24 bits
Compression mode : Lossy
Stream size : 476 MiB (2%)
Title : Карусель
Language : Russian
Audio #3
ID : 4
Format : DTS
Format/Info : Digital Theater Systems
Codec ID : A_DTS
Duration : 1h 28mn
Bit rate mode : Constant
Bit rate : 755 Kbps
Channel(s) : 6 channels
Channel positions : Front: L C R, Side: L R, LFE
Sampling rate : 48.0 KHz
Bit depth : 24 bits
Compression mode : Lossy
Stream size : 476 MiB (2%)
Title : Гланц
Language : Russian
Audio #4
ID : 5
Format : AC-3
Format/Info : Audio Coding 3
Mode extension : CM (complete main)
Codec ID : A_AC3
Duration : 1h 28mn
Bit rate mode : Constant
Bit rate : 448 Kbps
Channel(s) : 6 channels
Channel positions : Front: L C R, Side: L R, LFE
Sampling rate : 48.0 KHz
Bit depth : 16 bits
Compression mode : Lossy
Stream size : 282 MiB (1%)
Title : Живов
Language : Russian
Audio #5
ID : 6
Format : DTS
Format/Info : Digital Theater Systems
Codec ID : A_DTS
Duration : 1h 28mn
Bit rate mode : Constant
Bit rate : 755 Kbps
Channel(s) : 6 channels
Channel positions : Front: L C R, Side: L R, LFE
Sampling rate : 48.0 KHz
Bit depth : 24 bits
Compression mode : Lossy
Stream size : 476 MiB (2%)
Title : Гаврилов
Language : Russian
Audio #6
ID : 7
Format : DTS
Format/Info : Digital Theater Systems
Format profile : MA / Core
Codec ID : A_DTS
Duration : 1h 28mn
Bit rate mode : Variable
Bit rate : 1 561 Kbps / 1 510 Kbps
Channel(s) : 6 channels
Channel positions : Front: L C R, Side: L R, LFE
Sampling rate : 48.0 KHz
Bit depth : 16 bits
Compression mode : Lossless / Lossy
Language : English
Text #1
ID : 8
Format : UTF-8
Codec ID : S_TEXT/UTF8
Codec ID/Info : UTF-8 Plain Text
Language : Russian
Text #2
ID : 9
Format : UTF-8
Codec ID : S_TEXT/UTF8
Codec ID/Info : UTF-8 Plain Text
Language : English
Text #3
ID : 10
Format : PGS
Muxing mode : zlib
Codec ID : S_HDMV/PGS
Codec ID/Info : The same subtitle format used on BDs/HD-DVDs
Language : Russian
Text #4
ID : 11
Format : PGS
Muxing mode : zlib
Codec ID : S_HDMV/PGS
Codec ID/Info : The same subtitle format used on BDs/HD-DVDs
Language : English
Text #5
ID : 12
Format : PGS
Muxing mode : zlib
Codec ID : S_HDMV/PGS
Codec ID/Info : The same subtitle format used on BDs/HD-DVDs
Language : English
Text #6
ID : 13
Format : PGS
Muxing mode : zlib
Codec ID : S_HDMV/PGS
Codec ID/Info : The same subtitle format used on BDs/HD-DVDs
Language : English
Text #7
ID : 14
Format : PGS
Muxing mode : zlib
Codec ID : S_HDMV/PGS
Codec ID/Info : The same subtitle format used on BDs/HD-DVDs
Language : English
Menu
00:00:00.000 : Chapter 1
00:07:01.129 : Chapter 2
00:13:20.716 : Chapter 3
00:19:05.936 : Chapter 4
00:24:23.170 : Chapter 5
00:30:41.256 : Chapter 6
00:34:59.388 : Chapter 7
00:41:55.596 : Chapter 8
00:48:13.974 : Chapter 9
00:52:32.858 : Chapter 10
00:57:32.824 : Chapter 11
01:02:34.125 : Chapter 12
01:06:20.434 : Chapter 13
01:10:30.059 : Chapter 14
01:13:54.847 : Chapter 15
01:16:02.474 : Chapter 16

Скриншоты

[Торрент-статистика]
[Профиль]  [ЛС] 
Показать сообщения:    
Ответить на тему

Текущее время: Сегодня 16:10

Часовой пояс: GMT + 4



Вы не можете начинать темы
Вы не можете отвечать на сообщения
Вы не можете редактировать свои сообщения
Вы не можете удалять свои сообщения
Вы не можете голосовать в опросах
Вы не можете прикреплять файлы к сообщениям
Вы не можете скачивать файлы