Дж. Эдгар / J. Edgar (Клинт Иствуд / Clint Eastwood) [2011 г., драма, криминал, биография, история, HQRip 720p] R5

Ответить на тему
 
Автор
Сообщение

ArtZak ®

Пол:

Стаж: 5 лет 1 месяц

Сообщений: 3008

Репутация: 1363 [+] [-]

Откуда: Россия

Пост 15-Апр-2012 14:08

[Цитировать] 

Дж. Эдгар / J. Edgar
«Самый влиятельный человек в мире»
Год выпуска: 2011
Страна: США
Жанр: драма, криминал, биография, история
Продолжительность: 02:16:53
Перевод: Профессиональный (полное дублирование) [лицензия]
Субтитры: Русские (форс. + полные), Английские
Режиссер: Клинт Иствуд / Clint Eastwood
Производство: Imagine Entertainment, Malpaso Productions, Wintergreen Productions- -В ролях: Леонардо ДиКаприо / Leonardo DiCaprio (J. Edgar Hoover,), Наоми Уоттс / Naomi Watts (Helen Gandy), Арми Хаммер / Armie Hammer (Clyde Tolson), Джош Лукас / Josh Lucas (Charles Lindbergh), Джуди Денч / Judi Dench (Anna Marie Hoover), Джош Хэмилтон / Josh Hamilton (Robert Irwin), Джеффри Пирсон / Geoffrey Pierson (Mitchell Palmer), Шерил Лоусон / Cheryl Lawson (Roberta Dixon Palmer), Кейтлин Девер / Kaitlyn Dever (Palmer's Daughter), Брэйди Мэтьюз / Brady Matthews (Inspector), Ганнер Райт / Gunner Wright (Dwight Eisenhower), Дэвид Купер / David A. Cooper (Franklin Roosevelt)
Описание: В течение всей жизни Джон Эдгар Гувер поднимался к вершинам власти, чтобы стать самым могущественным человеком в Америке. Будучи главой Федерального бюро расследований, он ни перед чем не останавливался, чтобы защитить свою страну. Пережив восемь президентов и три войны, Гувер вел сражения с угрозами как реальными, так и надуманными, зачастую нарушая правила, чтобы уберечь сограждан от опасности. Он был безжалостен и был героем, причем одновременно; мир восхищался им, что было для него самой желанной, пусть и не материальной, наградой.
«Дж. Эдгар» глазами самого Гувера показывает нам его частную и общественную жизнь и отношения с окружающими человека, который мог с тем же успехом исказить правду, с каким он защищал ее в течение всей своей жизни, посвященной воплощению его собственной идеи справедливости, на которую часто влияла темная сторона власти.
Сэмпл: http://multi-up.com/686710
Тип релиза: HQRip 720p
Контейнер: MKV
Видео: AVC at 5500 Кбит/сек 1280x534 (2.40:1) at 23.976 fps
Аудио #1: AC-3 at 640 Кбит/сек 6 каналов, 48,0 КГц
Аудио #2: AC-3 at 640 Кбит/сек 6 каналов, 48,0 КГц

MI

Код:
General
Unique ID                                : 254919878644878922740592663110981933725 (0xBFC7C863A0466CFD8E18964C90DE5A9D)
Complete name                            : Dzh.Edgar.2011.DUAL.BDRip.720p.h264.AC3.-HQ-ViDEO.mkv
Format                                   : Matroska
Format version                           : Version 2
File size                                : 6.48 GiB
Duration                                 : 2h 16mn
Overall bit rate                         : 6 778 Kbps
Movie name                               : J. Edgar (2011) - HQ-ViDEO
Encoded date                             : UTC 2012-04-15 01:32:20
Writing application                      : mkvmerge v5.5.0 ('Healer') built on Apr  6 2012 21:43:24
Writing library                          : libebml v1.2.3 + libmatroska v1.3.0
Video
ID                                       : 1
Format                                   : AVC
Format/Info                              : Advanced Video Codec
Format profile                           : High@L4.1
Format settings, CABAC                   : Yes
Format settings, ReFrames                : 12 frames
Codec ID                                 : V_MPEG4/ISO/AVC
Duration                                 : 2h 16mn
Bit rate                                 : 5 500 Kbps
Width                                    : 1 280 pixels
Height                                   : 534 pixels
Display aspect ratio                     : 2.40:1
Frame rate                               : 23.976 fps
Color space                              : YUV
Chroma subsampling                       : 4:2:0
Bit depth                                : 8 bits
Scan type                                : Progressive
Bits/(Pixel*Frame)                       : 0.336
Stream size                              : 5.13 GiB (79%)
Title                                    : Encode: EbP @ taker0704
Writing library                          : x264 core 120 r2164 da19765
Encoding settings                        : cabac=1 / ref=12 / deblock=1:-3:-3 / analyse=0x3:0x113 / me=tesa / subme=9 / psy=1 / psy_rd=1.10:0.00 / mixed_ref=1 / me_range=16 / chroma_me=1 / trellis=2 / 8x8dct=1 / cqm=0 / deadzone=21,11 / fast_pskip=0 / chroma_qp_offset=-2 / threads=6 / sliced_threads=0 / nr=0 / decimate=0 / interlaced=0 / bluray_compat=0 / constrained_intra=0 / bframes=8 / b_pyramid=2 / b_adapt=2 / b_bias=0 / direct=3 / weightb=1 / open_gop=0 / weightp=2 / keyint=250 / keyint_min=23 / scenecut=40 / intra_refresh=0 / rc=2pass / mbtree=0 / bitrate=5500 / ratetol=1.0 / qcomp=0.60 / qpmin=0 / qpmax=69 / qpstep=4 / cplxblur=20.0 / qblur=0.5 / ip_ratio=1.40 / pb_ratio=1.30 / aq=1:0.80 / zones=4716,5044,b=1.3
Language                                 : English
Default                                  : Yes
Forced                                   : No
Audio #1
ID                                       : 2
Format                                   : AC-3
Format/Info                              : Audio Coding 3
Mode extension                           : CM (complete main)
Codec ID                                 : A_AC3
Duration                                 : 2h 16mn
Bit rate mode                            : Constant
Bit rate                                 : 640 Kbps
Channel(s)                               : 6 channels
Channel positions                        : Front: L C R, Side: L R, LFE
Sampling rate                            : 48.0 KHz
Bit depth                                : 16 bits
Compression mode                         : Lossy
Stream size                              : 627 MiB (9%)
Title                                    : DUB @ BD-CEE
Language                                 : Russian
Default                                  : Yes
Forced                                   : Yes
Audio #2
ID                                       : 3
Format                                   : AC-3
Format/Info                              : Audio Coding 3
Mode extension                           : CM (complete main)
Codec ID                                 : A_AC3
Duration                                 : 2h 16mn
Bit rate mode                            : Constant
Bit rate                                 : 640 Kbps
Channel(s)                               : 6 channels
Channel positions                        : Front: L C R, Side: L R, LFE
Sampling rate                            : 48.0 KHz
Bit depth                                : 16 bits
Compression mode                         : Lossy
Stream size                              : 627 MiB (9%)
Title                                    : Original
Language                                 : English
Default                                  : No
Forced                                   : No
Text #1
ID                                       : 4
Format                                   : UTF-8
Codec ID                                 : S_TEXT/UTF8
Codec ID/Info                            : UTF-8 Plain Text
Title                                    : Forced
Language                                 : Russian
Default                                  : Yes
Forced                                   : Yes
Text #2
ID                                       : 5
Format                                   : UTF-8
Codec ID                                 : S_TEXT/UTF8
Codec ID/Info                            : UTF-8 Plain Text
Title                                    : voronine
Language                                 : Russian
Default                                  : No
Forced                                   : No
Text #3
ID                                       : 6
Format                                   : UTF-8
Codec ID                                 : S_TEXT/UTF8
Codec ID/Info                            : UTF-8 Plain Text
Language                                 : English
Default                                  : No
Forced                                   : No
Text #4
ID                                       : 7
Format                                   : UTF-8
Codec ID                                 : S_TEXT/UTF8
Codec ID/Info                            : UTF-8 Plain Text
Title                                    : SDH
Language                                 : English
Default                                  : No
Forced                                   : No
Menu
00:00:00.000                             : :Chapter 1
00:10:36.427                             : :Chapter 2
00:20:13.587                             : :Chapter 3
00:29:26.264                             : :Chapter 4
00:40:52.116                             : :Chapter 5
00:49:37.892                             : :Chapter 6
00:59:26.480                             : :Chapter 7
01:10:27.765                             : :Chapter 8
01:20:48.969                             : :Chapter 9
01:29:52.929                             : :Chapter 10
01:40:37.990                             : :Chapter 11
01:49:25.893                             : :Chapter 12
01:58:26.641                             : :Chapter 13
02:11:00.352                             : :Chapter 14

Скриншоты

[Торрент-статистика]
[Профиль]  [ЛС] 
Показать сообщения:    
Ответить на тему

Текущее время: Сегодня 12:10

Часовой пояс: GMT + 4



Вы не можете начинать темы
Вы не можете отвечать на сообщения
Вы не можете редактировать свои сообщения
Вы не можете удалять свои сообщения
Вы не можете голосовать в опросах
Вы не можете прикреплять файлы к сообщениям
Вы не можете скачивать файлы