Новая земля / Nova zembla (Рейну Урлеманс / Reinout Oerlemans) [2011 г., Исторический, BDRip 720p]

Ответить на тему
 
Автор
Сообщение

Sayar07 ®

Пол:

Стаж: 5 лет 6 месяцев

Сообщений: 2

Репутация: 0 [+] [-]

Пост 28-Мар-2012 13:04

[Цитировать] 

Новая земля / Nova zembla
Год выпуска: 2011
Страна: Нидерланды
Жанр: Исторический
Продолжительность: 01:49:06
Перевод: Любительский (двухголосый закадровый)
Оригинальная аудиодорожка: Голландский
Режиссер: Рейну Урлеманс / Reinout Oerlemans
В ролях: Даутцен Крёз, Дерек де Линт, Ян Деклер, Сэмми Шилт, Виктор Рейнир, Тюн Куилбур, Бас Кейзер, Мэдс Уиттерманс, Иуда Гослинга
Описание: В 1594—1597 годах Баренц совершил три экспедиции в Арктику для поиска Северо-Восточного прохода в Тихий океан, открыв и описав берега Новой Земли. Во время последнего плавания корабль Баренца затёрло во льдах, и команде пришлось остаться на зимовку в условиях полярной ночи на побережье архипелага. Многие члены команды, в их числе сам Баренц, не выдержали лишений арктической зимы и погибли. Об этом путешествии повествует дневник одного из членов команды — Херрита де Фейра. Дневники де Фейра сегодня воспринимаются как источник научного материала, а голландские дети изучают историю мореплавания Баренца по гравюрам из дневника моряка.
Сэмпл
IMDB
КиноПоиск
Тип релиза: BDRip
Контейнер: MKV
Видео кодек: H264 (AVC)
Аудио кодек: DTS, АС3
Видео: MPEG-4 AVC, 4227 Кбит/с, 1280x544
Аудио : Russian : 48 kHz, AC3 3/2 (L,C,R,l,r) + LFE ch, ~448 kbps
Аудио : Dutch : 48 kHz, DTS 3/2 (L,C,R,l,r) + LFE ch 1536 kbps

MediaInfo

Общее
Уникальный идентификатор : 225026210581119993594843793359868565398 (0xA94A78C2D6F16F18A8C23DE2E6749796)
Полное имя : D:\Закачки\Nova.Zembla.2011.720p\Nova_Zembla_2011_BDRip_720p.mkv
Формат : Matroska
Версия формата : Version 2
Размер файла : 4,72 Гбайт
Продолжительность : 1 ч. 49 м.
Общий поток : 6186 Кбит/сек
Название фильма : Nova_Zembla_2011_720p
Дата кодирования : UTC 2012-03-27 12:35:23
Программа кодирования : mkvmerge v5.0.1 ('Es ist Sommer') built on Oct 9 2011 11:55:43
Библиотека кодирования : libebml v1.2.2 + libmatroska v1.3.0
Видео
Идентификатор : 1
Формат : AVC
Формат/Информация : Advanced Video Codec
Профиль формата : High@L4.1
Параметр CABAC формата : Да
Параметр ReFrames формата : 5 кадров
Идентификатор кодека : V_MPEG4/ISO/AVC
Продолжительность : 1 ч. 49 м.
Битрейт : 4227 Кбит/сек
Ширина : 1280 пикселей
Высота : 544 пикселя
Соотношение сторон : 2,35:1
Частота кадров : 23,976 кадра/сек
Цветовое пространство : YUV
Субдискретизация насыщенности : 4:2:0
Битовая глубина : 8 бит
Тип развёртки : Прогрессивная
Бит/(Пиксели*Кадры) : 0.253
Размер потока : 3,13 Гбайт (66%)
Библиотека кодирования : x264 core 122 r2184 5c85e0a
Настройки программы : cabac=1 / ref=5 / deblock=1:0:0 / analyse=0x3:0x133 / me=umh / subme=7 / psy=1 / psy_rd=1.00:0.00 / mixed_ref=1 / me_range=16 / chroma_me=1 / trellis=1 / 8x8dct=1 / cqm=0 / deadzone=21,11 / fast_pskip=0 / chroma_qp_offset=-2 / threads=6 / sliced_threads=0 / nr=0 / decimate=1 / interlaced=0 / bluray_compat=0 / constrained_intra=0 / bframes=3 / b_pyramid=2 / b_adapt=2 / b_bias=0 / direct=3 / weightb=1 / open_gop=0 / weightp=2 / keyint=250 / keyint_min=23 / scenecut=40 / intra_refresh=0 / rc_lookahead=50 / rc=2pass / mbtree=1 / bitrate=4227 / ratetol=1.0 / qcomp=0.60 / qpmin=0 / qpmax=69 / qpstep=4 / cplxblur=20.0 / qblur=0.5 / ip_ratio=1.40 / aq=1:1.00
Язык : Dutch
Default : Да
Forced : Да
Аудио #1
Идентификатор : 2
Формат : AC-3
Формат/Информация : Audio Coding 3
Расширение режима : CM (complete main)
Идентификатор кодека : A_AC3
Продолжительность : 1 ч. 49 м.
Вид битрейта : Постоянный
Битрейт : 448 Кбит/сек
Каналы : 6 каналов
Расположение каналов : Front: L C R, Side: L R, LFE
Частота : 48,0 КГц
Битовая глубина : 16 бит
Метод сжатия : С потерями
Размер потока : 350 Мбайт (7%)
Язык : Russian
Default : Да
Forced : Нет
Аудио #2
Идентификатор : 3
Формат : DTS
Формат/Информация : Digital Theater Systems
Идентификатор кодека : A_DTS
Продолжительность : 1 ч. 49 м.
Вид битрейта : Постоянный
Битрейт : 1510 Кбит/сек
Каналы : 6 каналов
Расположение каналов : Front: L C R, Side: L R, LFE
Частота : 48,0 КГц
Битовая глубина : 24 бит
Метод сжатия : С потерями
Размер потока : 1,15 Гбайт (24%)
Язык : Dutch
Default : Нет
Forced : Да
Меню
00:00:00.000 : en:00:00:00.000
00:11:33.359 : en:00:11:33.359
00:23:33.537 : en:00:23:33.537
00:40:27.550 : en:00:40:27.550
00:51:30.504 : en:00:51:30.504
01:04:01.671 : en:01:04:01.671
01:13:14.807 : en:01:13:14.807
01:30:20.915 : en:01:30:20.915
01:43:57.273 : en:01:43:57.273

Скриншоты






[Торрент-статистика]
[Профиль]  [ЛС] 

stanislaw5

Стаж: 4 года 8 месяцев

Сообщений: 1

Репутация: 0 [+] [-]

Пост 18-Янв-2013 16:07 (спустя 9 месяцев 21 день)

[Цитировать] 

а как скачать,еже ли никто не раздает?
[Торрент-статистика]
[Профиль]  [ЛС] 
Показать сообщения:    
Ответить на тему

Текущее время: Сегодня 16:07

Часовой пояс: GMT + 4



Вы не можете начинать темы
Вы не можете отвечать на сообщения
Вы не можете редактировать свои сообщения
Вы не можете удалять свои сообщения
Вы не можете голосовать в опросах
Вы не можете прикреплять файлы к сообщениям
Вы не можете скачивать файлы