Как украсть небоскреб / Tower Heist (Бретт Рэтнер) [2011, комедия, криминал, BDRip 1080p] R5

Ответить на тему
 
Автор
Сообщение

diim ®

Пол:

Стаж: 1 год 10 месяцев

Сообщений: 1033

Репутация: 112 [+] [-]

Пост 05-Мар-2012 14:58

[Цитировать] 

Как украсть небоскребTower Heist[size=100]Год выпуска: 2011
Страна: США
Слоган: «Вся власть народу. И деньги тоже.»
Жанр: комедия, криминал
Продолжительность: 01:44:33
Перевод: Профессиональный (полное дублирование) [Лицензия]-Режиссер: Бретт Рэтнер
Сценарий: Тед Гриффин, Джефф Натансон, Адам Купер
Продюсер: Брайан Грейзер, Эдди Мёрфи, Билл Карраро
Оператор: Данте Спинотти
Композитор: Кристоф Бек
В ролях: Бен Стиллер, Эдди Мёрфи, Кейси Аффлек, Алан Алда, Мэттью Бродерик, Теа Леони, Майкл Пенья, Габури «Гэбби» Сидибе, Стефен Хендерсон, Джадд Хёрш-Описание: Джошу Ковачу не повезло - его поимел злобный финансист, живущий в роскошных апартаментах на верхнем этаже небоскреба. Чтобы вернуть деньги, Джош с друзьями решается на грандиозную кражу со взломом.
Но одним им это не под силу, и они обращаются к матерому преступнику. Дело за малым - шесть новоявленных друзей Джоушена должны пробраться в пентхаус и отыскать 20 миллионов долларов.-Качество: BDRip, 1080p
Формат: MKV
Видео: AVC; 1920x800 (2.35:1); 8968 kb/s; 23,976 fps; 0,264 bit/pixel
Аудио Russian: AC3; 384 Kbps; CBR; 6 ch
Аудио English: DTS; 1510 Kbps; CBR; 6 ch; 24 bit

MediaInfo

General
Unique ID : 250226511758632691900637674903797965321 (0xBC3FDF8938292C1FB21410A8D87F2209)
Complete name : E:\Tower.Heist.2011.D.BDRip.1080p.Uniongang.tv.mkv
Format : Matroska
File size : 7.93 GiB
Duration : 1h 44mn
Overall bit rate : 10.9 Mbps
Movie name : Uniongang.tv
Encoded date : UTC 2012-03-02 22:00:58
Writing application : mkvmerge v5.2.1 ('A Far Off Place') built on Jan 2 2012 23:21:10
Writing library : libebml v1.2.3 + libmatroska v1.3.0
Video
ID : 1
Format : AVC
Format/Info : Advanced Video Codec
Format profile : High@L4.1
Format settings, CABAC : Yes
Format settings, ReFrames : 5 frames
Codec ID : V_MPEG4/ISO/AVC
Duration : 1h 44mn
Bit rate : 8 968 Kbps
Width : 1 920 pixels
Height : 800 pixels
Display aspect ratio : 2.40:1
Frame rate : 23.976 fps
Color space : YUV
Chroma subsampling : 4:2:0
Bit depth : 8 bits
Scan type : Progressive
Bits/(Pixel*Frame) : 0.244
Stream size : 6.39 GiB (81%)
Title : BDRip.1080p.Uniongang.tv
Writing library : x264 core 120 r2146 bcd41db
Encoding settings : cabac=1 / ref=5 / deblock=1:0:0 / analyse=0x3:0x113 / me=umh / subme=8 / psy=1 / psy_rd=1.00:0.00 / mixed_ref=1 / me_range=16 / chroma_me=1 / trellis=1 / 8x8dct=1 / cqm=0 / deadzone=21,11 / fast_pskip=1 / chroma_qp_offset=-2 / threads=12 / sliced_threads=0 / nr=0 / decimate=1 / interlaced=0 / bluray_compat=0 / constrained_intra=0 / bframes=3 / b_pyramid=2 / b_adapt=2 / b_bias=0 / direct=3 / weightb=1 / open_gop=0 / weightp=2 / keyint=240 / keyint_min=24 / scenecut=40 / intra_refresh=0 / rc_lookahead=50 / rc=2pass / mbtree=1 / bitrate=8968 / ratetol=1.0 / qcomp=0.60 / qpmin=0 / qpmax=69 / qpstep=4 / cplxblur=20.0 / qblur=0.5 / ip_ratio=1.40 / aq=1:1.00
Language : English
Audio #1
ID : 2
Format : AC-3
Format/Info : Audio Coding 3
Mode extension : CM (complete main)
Codec ID : A_AC3
Duration : 1h 44mn
Bit rate mode : Constant
Bit rate : 384 Kbps
Channel(s) : 6 channels
Channel positions : Front: L C R, Side: L R, LFE
Sampling rate : 48.0 KHz
Bit depth : 16 bits
Compression mode : Lossy
Stream size : 287 MiB (4%)
Title : 384Kbps
Language : Russian
Audio #2
ID : 3
Format : DTS
Format/Info : Digital Theater Systems
Codec ID : A_DTS
Duration : 1h 44mn
Bit rate mode : Constant
Bit rate : 1 510 Kbps
Channel(s) : 6 channels
Channel positions : Front: L C R, Side: L R, LFE
Sampling rate : 48.0 KHz
Bit depth : 24 bits
Compression mode : Lossy
Delay relative to video : 11ms
Stream size : 1.10 GiB (14%)
Title : DTS.1510Kbps.English
Language : English
Text
ID : 4
Format : UTF-8
Codec ID : S_TEXT/UTF8
Codec ID/Info : UTF-8 Plain Text
Title : English
Language : English
Menu
00:00:00.000 : en:00:00:00.000
00:03:23.203 : en:00:03:23.203
00:09:20.810 : en:00:09:20.810
00:14:09.599 : en:00:14:09.599
00:19:13.778 : en:00:19:13.778
00:23:41.503 : en:00:23:41.503
00:27:16.468 : en:00:27:16.468
00:32:05.549 : en:00:32:05.549
00:38:16.377 : en:00:38:16.377
00:43:57.260 : en:00:43:57.260
00:49:20.541 : en:00:49:20.541
00:53:42.594 : en:00:53:42.594
00:56:58.582 : en:00:56:58.582
01:01:46.995 : en:01:01:46.995
01:06:22.687 : en:01:06:22.687
01:11:30.161 : en:01:11:30.161
01:17:13.504 : en:01:17:13.504
01:23:09.568 : en:01:23:09.568
01:31:52.257 : en:01:31:52.257
01:38:42.125 : en:01:38:42.125

Скриншоты

[Торрент-статистика]
[Профиль]  [ЛС] 
Показать сообщения:    
Ответить на тему

Текущее время: Сегодня 15:37

Часовой пояс: GMT + 4



Вы не можете начинать темы
Вы не можете отвечать на сообщения
Вы не можете редактировать свои сообщения
Вы не можете удалять свои сообщения
Вы не можете голосовать в опросах
Вы не можете прикреплять файлы к сообщениям
Вы не можете скачивать файлы