Схватка / Heat (Майкл Манн) [1995 г., Боевик, детектив, драма, криминал, BD Remux]

Ответить на тему
 
Автор
Сообщение

Ратибор ®

Стаж: 5 лет 9 месяцев

Сообщений: 201

Репутация: 10 [+] [-]

Пост 27-Фев-2012 17:33

[Цитировать] 

Схватка / Heat
Год выпуска: 1995
Страна: США
Жанр: Боевик, детектив, драма, криминал
Продолжительность: 02:50:27
Перевод:
Профессиональный (многоголосый, закадровый) с лицензии Twister
Профессиональный (многоголосый, закадровый) с лицензии Gemini
Авторский одноголосый (Дмитрий Пучков aka Гоблин) в переводе присутствует ненормативная лексика
Авторский одноголосый (Андрей Гаврилов)
Русские субтитры: есть (два варианта)
Режиссер: Майкл Манн
В ролях: Аль Пачино, Роберт Де Ниро, Вэл Килмер, Том Сайзмор, Джон Войт, Натали Портман, Эшли Джадд
Описание: Нил МакКоли - преступник. Один из лучших, если можно так сказать о преступнике, в Лос-Анджелесе, а быть может, и во всей Америке. И работать с ним вместе почитают за честь суперпрофессионалы криминального мира. Но против него выступает Винсент Ханна. Детектив. Один из лучших в Лос-Анджелесе, а быть может, и во всей Америке. У Винсента и Нила очень много общего. Вероятно, общего у них даже больше, чем отличий. Однако они все же стоят по разные стороны закона. Две сильнейшие команды сошлись друг против друга. Только речь идет не о спортивном состязании, а о схватке не на жизнь, а на смерть...
Доп. информация: Размеры файлов, входящих в раздачу:
Ремукс - 33.8 GB (внутри контейнера: русский DTS-HD (Гоблин) - 2.61 GB, русский DTS-HD (Гаврилов) - 2.61 GB)
Английский TrueHD - 2.47 GB
Качество: BD Remux
Формат: MKV
Видео кодек: VC-1
Аудио кодек: AC3, DTS-HD, TrueHD
Видео: 1920x1080, 22384 Kbps, 23.976 fps
Аудио1: Русский AC3 5.1, 48 KHz, 448 Kbps профессиональный (многоголосый, закадровый) с лицензии Twister
Аудио2: Русский AC3 5.1, 48 KHz, 384 Kbps профессиональный (многоголосый, закадровый) с лицензии Gemini
Аудио3: Русский DTS-HD Master Audio 5.1, 48 KHz, 16bit, 2195 kbps, Lossless (DTS Core: 5.1, 48 KHz, 16bit, 1536 kbps) авторский одноголосый (Дмитрий Пучков aka Гоблин)*
Аудио4: Русский DTS-HD Master Audio 5.1, 48 KHz, 16bit, 2196 kbps, Lossless (DTS Core: 5.1, 48 KHz, 16bit, 1536 kbps) авторский одноголосый (Андрей Гаврилов)*
Аудио5: Английский AC3 5.1, 48 KHz, 640 Kbps
Аудио6: Английский AC3 2.0, 48 KHz, 192 Kbps (комментарии режиссёра)
Аудио7: Английский TrueHD 5.1, 48 KHz, 16-bit, 1440 kbps, Lossless (AC3 Core: 5.1 / 48 kHz / 640 kbps) отдельным файлом
Субтитры: Русские (с лицензии Twister), русские (с лицензии Gemini), английские, английские (для слабослышащих)
* - дорожка сделана наложением чистого голоса на центральный канал английского TrueHD

MediaInfo

General
Complete name : Heat.1995.BD.Remux.1080p.VC-1.4xRus.Eng.Commentary.mkv
Format : Matroska
File size : 33.9 GiB
Duration : 2h 50mn
Overall bit rate : 28.4 Mbps
Encoded date : UTC 2009-10-31 04:29:24
Writing application : mkvmerge v2.9.8 ('C'est le bon') built on Aug 13 2009 12:49:06
Writing library : libebml v0.7.7 + libmatroska v0.8.1
Video
ID : 1
Format : VC-1
Format profile : AP@L3
Codec ID : WVC1
Codec ID/Hint : Microsoft
Duration : 2h 50mn
Width : 1 920 pixels
Height : 1 080 pixels
Display aspect ratio : 16:9
Frame rate : 23.976 fps
Resolution : bit0
Colorimetry : 4:2:0
Scan type : Progressive
Language : English
Audio #1
ID : 2
Format : AC-3
Format/Info : Audio Coding 3
Codec ID : A_AC3
Duration : 2h 50mn
Bit rate mode : Constant
Bit rate : 448 Kbps
Channel(s) : 6 channels
Channel positions : Front: L C R, Surround: L R, LFE
Sampling rate : 48.0 KHz
Stream size : 546 MiB (2%)
Title : Mnogogoloska Twister AC3 5.1 448 kbps
Language : Russian
Audio #2
ID : 3
Format : AC-3
Format/Info : Audio Coding 3
Codec ID : A_AC3
Duration : 2h 50mn
Bit rate mode : Constant
Bit rate : 384 Kbps
Channel(s) : 6 channels
Channel positions : Front: L C R, Surround: L R, LFE
Sampling rate : 48.0 KHz
Stream size : 468 MiB (1%)
Title : Mnogogoloska Gemini AC3 5.1 384 kbps
Language : Russian
Audio #3
ID : 4
Format : DTS
Format/Info : Digital Theater Systems
Format profile : MA
Codec ID : A_DTS
Duration : 2h 50mn
Bit rate mode : Variable
Channel(s) : 6 channels
Channel positions : Front: L C R, Surround: L R, LFE
Sampling rate : 48.0 KHz
Resolution : 16 bits
Title : Avtorskiy Goblin DTS-HD Master Audio, 5.1, 2195 kbps, 16 bit, Lossless (1536 kbps core)
Language : Russian
Audio #4
ID : 5
Format : DTS
Format/Info : Digital Theater Systems
Format profile : MA
Codec ID : A_DTS
Duration : 2h 50mn
Bit rate mode : Variable
Channel(s) : 6 channels
Channel positions : Front: L C R, Surround: L R, LFE
Sampling rate : 48.0 KHz
Resolution : 16 bits
Title : Avtorskiy Gavrilov DTS-HD Master Audio, 5.1, 2196 kbps, 16 bit, Lossless (1536 kbps core)
Language : Russian
Audio #5
ID : 6
Format : AC-3
Format/Info : Audio Coding 3
Codec ID : A_AC3
Duration : 2h 50mn
Bit rate mode : Constant
Bit rate : 640 Kbps
Channel(s) : 6 channels
Channel positions : Front: L C R, Surround: L R, LFE
Sampling rate : 48.0 KHz
Stream size : 781 MiB (2%)
Title : AC3 5.1 640 kbps
Language : English
Audio #6
ID : 7
Format : AC-3
Format/Info : Audio Coding 3
Format profile : Dolby Digital
Codec ID : A_AC3
Duration : 2h 50mn
Bit rate mode : Constant
Bit rate : 192 Kbps
Channel(s) : 2 channels
Channel positions : L R
Sampling rate : 48.0 KHz
Stream size : 234 MiB (1%)
Title : Commentary by Director Michael Mann AC3 2.0 192 kbps
Language : English
Text #1
ID : 8
Format : UTF-8
Codec ID : S_TEXT/UTF8
Codec ID/Info : UTF-8 Plain Text
Title : Twister
Language : Russian
Text #2
ID : 9
Format : UTF-8
Codec ID : S_TEXT/UTF8
Codec ID/Info : UTF-8 Plain Text
Title : Gemini
Language : Russian
Text #3
ID : 10
Format : UTF-8
Codec ID : S_TEXT/UTF8
Codec ID/Info : UTF-8 Plain Text
Title : Full
Language : English
Text #4
ID : 11
Format : UTF-8
Codec ID : S_TEXT/UTF8
Codec ID/Info : UTF-8 Plain Text
Title : Full for Hearing Impaired
Language : English
Menu
00:00:00.000 : Tools for the Job (Credits)
00:04:22.512 : Attention in the Morning
00:07:04.007 : Countdown to a Heist
00:10:07.607 : Quick on the Trigger
00:13:35.231 : Neil and Nate
00:14:52.225 : Vincent in Charge
00:18:21.058 : Rid of Waingro
00:21:03.512 : Three Households Under Strain
00:25:23.939 : A Connection: Neil and Eady
00:31:59.501 : Albert Irks Vincent's Ire
00:34:56.303 : Deals in the Works
00:37:55.273 : No Attachments
00:40:48.029 : Rules of the Games
00:44:34.088 : A Lead on Slick
00:49:21.917 : Shootout at the Drive-in
00:52:02.119 : Dead Man Talking
00:52:56.924 : An Evening Out
00:56:03.569 : The Grim Reaper Visits
00:58:10.320 : A Mother's Pain
01:01:41.698 : The Mess Vincent Leaves
01:04:29.741 : Couples Seeking Comfort
01:08:27.186 : Walking Away Under Watch
01:14:49.860 : Everybody's In
01:17:15.422 : In Each Other's Sights
01:21:57.579 : A Hit-and-Miss Guy; Going Out
01:25:22.367 : Invitation to Coffee
01:28:50.617 : A Couple of Regular Fellows
01:35:08.536 : Where These People Are
01:36:59.272 : New Afflictions
01:41:19.282 : The Heist Begins
01:45:05.382 : Tipped Off
01:46:39.059 : Under Fire
01:52:35.082 : Cheritto's Last Stand
01:53:56.079 : Fallout
01:56:49.252 : The Source of the Leak
01:59:18.943 : Revenge
02:02:51.030 : Charlene's Choice
02:07:24.220 : It Will Be Different
02:10:05.589 : A Means Toward Closure
02:12:08.629 : No Point
02:14:45.452 : With a Wave
02:19:26.316 : TV to Go
02:21:44.246 : Not Letting Go of Lauren
02:25:33.350 : Home Free... Nearly
02:28:01.998 : Closing In
02:30:45.411 : "I'm Not What You Want, Justine"
02:33:03.633 : Looking at Death
02:35:05.796 : One Last Look
02:38:20.449 : Runaway Cat-and-Mouse
02:40:25.658 : In the Light
02:43:51.321 : Hand in Hand
02:45:47.938 : End Credits

Скриншоты


_________________

[Торрент-статистика]
[Профиль]  [ЛС] 
Показать сообщения:    
Ответить на тему

Текущее время: Сегодня 09:51

Часовой пояс: GMT + 4



Вы не можете начинать темы
Вы не можете отвечать на сообщения
Вы не можете редактировать свои сообщения
Вы не можете удалять свои сообщения
Вы не можете голосовать в опросах
Вы не можете прикреплять файлы к сообщениям
Вы не можете скачивать файлы