Любовник / L’amant / The Lover (Жан-Жак Анно / Jean-Jacques Annaud) [1992 г., Мелодрама, BDRip]

Ответить на тему
 
Автор
Сообщение

Ратибор ®

Стаж: 5 лет 9 месяцев

Сообщений: 201

Репутация: 10 [+] [-]

Пост 27-Фев-2012 17:14

[Цитировать] 

Любовник / L’amant / The Lover
Год выпуска: 1992
Страна: Франция, Великобритания, Вьетнам
Жанр: Мелодрама
Продолжительность: 01:55:34
Перевод: Профессиональный (многоголосый закадровый)
Cубтитры: русские, английские
Оригинальная аудиодорожка: английский
Режиссер: Жан-Жак Анно / Jean-Jacques Annaud
В ролях: Джейн Марч, Тони Леунг, Фредерика Майнингер, Арно Джованенетти, Мельвиль Пупо, Лиза Фолкнер
Описание: ...1929 год. Французский колониальный Вьетнам... Юная француженка возвращается с каникул в школу-пансионат. Во время переезда на пароме она привлекает внимание молодого китайского аристократа. Он предлагает подвезти ее до города на своем роскошном лимузине. Так начинается история о пылкой любви вопреки классовым барьерам и социальным табу...
Тип релиза: BDRip 1080p [WiKi]
Контейнер: MKV
Видео: AVC, 1920x1040, 16:9, 24.000 fps, 11600 kbps
Аудио 1: AC3 Dolby Digital, 48 kHz, 192 kbps, 2/0 (L,R) ch
Аудио 2: DTS, 48 kHz, 755 kbps, 2/0 (L,R) ch
Формат субтитров: softsub (SRT)

MediaInfo

Общее
Уникальный идентификатор : 190381550463697824459104065672939512954 (0x8F3A2723C75CB766ADC03259C12B247A)
Полное имя : E:\Downloads\The.Lover.1992.BDRip.1080p.mkv
Формат : Matroska
Версия формата : Version 2
Размер файла : 10,2 Гбайт
Продолжительность : 1 ч. 55 м.
Общий поток : 12,6 Мбит/сек
Дата кодирования : UTC 2012-02-24 05:38:17
Программа кодирования : mkvmerge v5.2.1 ('A Far Off Place') built on Jan 2 2012 23:21:10
Библиотека кодирования : libebml v1.2.3 + libmatroska v1.3.0
Видео
Идентификатор : 1
Формат : AVC
Формат/Информация : Advanced Video Codec
Профиль формата : High@L4.1
Параметр CABAC формата : Да
Параметр ReFrames формата : 4 кадра
Идентификатор кодека : V_MPEG4/ISO/AVC
Продолжительность : 1 ч. 55 м.
Битрейт : 11,6 Мбит/сек
Ширина : 1920 пикселей
Высота : 1040 пикселей
Соотношение сторон : 16:9
Частота кадров : 24,000 кадра/сек
Цветовое пространство : YUV
Субдискретизация насыщенности : 4:2:0
Битовая глубина : 8 бит
Тип развёртки : Прогрессивная
Бит/(Пиксели*Кадры) : 0.243
Размер потока : 9,20 Гбайт (90%)
Библиотека кодирования : x264 core 98 r1649 c54c47d
Настройки программы : cabac=1 / ref=4 / deblock=1:-3:-3 / analyse=0x3:0x113 / me=umh / subme=9 / psy=1 / psy_rd=1.10:0.00 / mixed_ref=1 / me_range=32 / chroma_me=1 / trellis=2 / 8x8dct=1 / cqm=0 / deadzone=21,11 / fast_pskip=0 / chroma_qp_offset=-4 / threads=12 / sliced_threads=0 / nr=0 / decimate=0 / interlaced=0 / constrained_intra=0 / bframes=8 / b_pyramid=2 / b_adapt=2 / b_bias=0 / direct=3 / weightb=1 / weightp=2 / keyint=250 / keyint_min=25 / scenecut=40 / intra_refresh=0 / rc_lookahead=48 / rc=2pass / mbtree=1 / bitrate=11642 / ratetol=1.0 / qcomp=0.60 / qpmin=10 / qpmax=51 / qpstep=4 / cplxblur=20.0 / qblur=0.5 / ip_ratio=1.40 / aq=1:0.80
Язык : English
Default : Да
Forced : Нет
Аудио #1
Идентификатор : 2
Формат : AC-3
Формат/Информация : Audio Coding 3
Расширение режима : CM (complete main)
Идентификатор кодека : A_AC3
Продолжительность : 1 ч. 55 м.
Вид битрейта : Постоянный
Битрейт : 192 Кбит/сек
Каналы : 2 канала
Расположение каналов : Front: L R
Частота : 48,0 КГц
Битовая глубина : 16 бит
Метод сжатия : С потерями
Размер потока : 159 Мбайт (2%)
Язык : Russian
Default : Да
Forced : Нет
Аудио #2
Идентификатор : 3
Формат : DTS
Формат/Информация : Digital Theater Systems
Идентификатор кодека : A_DTS
Продолжительность : 1 ч. 55 м.
Вид битрейта : Постоянный
Битрейт : 755 Кбит/сек
Каналы : 2 канала
Расположение каналов : Front: L R
Частота : 48,0 КГц
Битовая глубина : 16 бит
Метод сжатия : С потерями
Размер потока : 624 Мбайт (6%)
Язык : English
Default : Нет
Forced : Нет
Текст #1
Идентификатор : 4
Формат : UTF-8
Идентификатор кодека : S_TEXT/UTF8
Идентификатор кодека/Информация : UTF-8 Plain Text
Язык : Russian
Default : Да
Forced : Нет
Текст #2
Идентификатор : 5
Формат : UTF-8
Идентификатор кодека : S_TEXT/UTF8
Идентификатор кодека/Информация : UTF-8 Plain Text
Язык : English
Default : Нет
Forced : Нет
Меню
00:00:00.000 : de:00:00:00.000
00:02:42.750 : de:00:02:42.750
00:09:48.833 : de:00:09:48.833
00:18:56.458 : de:00:18:56.458
00:26:09.417 : de:00:26:09.417
00:32:01.917 : de:00:32:01.917
00:43:46.958 : de:00:43:46.958
00:53:57.083 : de:00:53:57.083
01:03:30.875 : de:01:03:30.875
01:13:52.417 : de:01:13:52.417
01:20:12.875 : de:01:20:12.875
01:28:03.500 : de:01:28:03.500
01:36:34.667 : de:01:36:34.667
01:46:12.875 : de:01:46:12.875
01:52:21.417 : de:01:52:21.417

Скриншоты


_________________

[Торрент-статистика]
[Профиль]  [ЛС] 
Показать сообщения:    
Ответить на тему

Текущее время: Сегодня 10:00

Часовой пояс: GMT + 4



Вы не можете начинать темы
Вы не можете отвечать на сообщения
Вы не можете редактировать свои сообщения
Вы не можете удалять свои сообщения
Вы не можете голосовать в опросах
Вы не можете прикреплять файлы к сообщениям
Вы не можете скачивать файлы