Серая зона / The Grey Zone (Тим Блейк Нельсон) [2001 г., Военная драма, HDTVRip]

Ответить на тему
 
Автор
Сообщение

AZLK ®

Пол:

Стаж: 9 лет 5 месяцев

Сообщений: 106

Репутация: 14 [+] [-]

Откуда: Москва, Солнцево

Пост 25-Фев-2012 00:27

[Цитировать] 

Серая зона / The Grey Zone
Год выпуска: 2001
Страна: США
Жанр: Военная драма
Продолжительность: 01:48:23
Перевод: Профессиональный (двухголосый)
Режиссер: Тим Блейк Нельсон
Продюсеры:Памела Коффлер, Тим Блейк Нелсон, Кристин Вэчон
Сценарист:Тим Блейк Нелсон
По пьесе Тима Блейка Нелсона и книге Миклоша Нижли Аушвиц: свидетельства доктора
Оператор: Расселл Ли Файн
Композитор:Джефф Данна; использована музыка Брамса и Штрауса
В ролях: Харви Кейтел, Дэвид Аркетт, Стив Бусеми, Мира Сорвино, Наташа Лионн, Гарри Аничкин, Велизар Бинев, Дэвид Чэндлер, Михаэль Штульбарг, Георг Златарев, Димитар Иванов, Дэниэл Бензали, Аллан Кордунер, Генри Стрэм, Камелия Григорова, Лиза Бенавидес, Ончо Алексанян, Валентин Ганев, Стив Убельс, Виктор Калев, Христо Шопов, Марк Винг-Дэви
Описание: Фильм рассказывает о Sonderkommandos — подразделении состоявшем из евреев и работавших при газовых камерах. Они помогали раздевать узников, собирали у них ценности и подталкивали их в печи. Позже они отмывали кровь от стен газовой камеры и удаляли у трупов золотые зубы и волосы. Те, кто отказывались, были застрелены. После 14-часовой работы члены Sonderkommando получали хорошее питание, им разрешали курить, пить и читать в кварталах, отдельных от других заключенных.
Некоторым также предоставляли несколько дополнительных месяцев жизни перед тем, как их также убивали. Пьеса Тима Блэйка Нельсона основана на истории, произошедшей в одной из 13 существовавших Sonderkommando. И единственный раз за всю историю пленные евреи решились на вооруженное восстание, чтобы спасти не собственные, а чужие жизни.
Тип релиза: HDTVRip
Контейнер: MKV
Видео кодек: MPEG2
Аудио кодек: AC3 (Dolby Digital)
Видео: 1920x1080 (16:9), 29.970 fps, MPEG-2 ~8 389 Kbps avg, 0.135 bit/pixel, Interlaced
Аудио: 48 kHz, AC3 Dolby Digital, 3/2 (L,C,R,l,r) + LFE ch, ~384.00 kbps avg - DVO
Аудио: 48 kHz, AC3 Dolby Digital, 3/2 (L,C,R,l,r) + LFE ch, ~384.00 kbps avg - Original

Интересные факты

  • Премьера в Америке – 18 октября 2002
    (ограниченный прокат – 8 экранов) .
  • Бюджет фильма - $5 млн.
  • Фестивальные премьеры – Торонто (13 сентября 2001), Сан-Себастьян (22 сентября 2001), Хайфа (6 октября 2001), Гётинбург (26 января 2002), Москва (28 июня 2002), Новый Орлеан (13 октября 2002).
  • Третья режиссерская работа актера Тима Блейка Нелсона. Он не снялся ни в одном из своих фильмов.
  • Фильм основан на реальных событиях.
  • Литературной основой ленты стала одноименная пьеса Тима Блейка Нелсона. Документальной – автобиографическая книга Аушвиц: свидетельства доктора, написанная венгерским евреем Миклошем Нижли, который ради спасения семьи согласился помогать доктору Йозефу Менгеле в его экспериментах над людьми. Нелсон лично приобрел права на книгу Нижли.
  • Идея пьесы пришла Нелсону в середине 90-х, когда он прочел эссе Примо Леви Погубленные и спасенные, где впервые узнал о еврейских группах «зондеркоммандос».
  • Участники «зондеркоммандос» получали лишь небольшую отсрочку смерти – в четыре месяца. Помимо этого, у них был ряд своих привилегий – они могли пить, курить, читать книги, получали более качественную пищу, а также имели право забирать себе вещи убитых евреев.
  • За год до пьесы Серая зона Нелсон начал работать над другой пьесой о холокосте. Однако почувствовав, что она ничего не добавит ко всему уже сказанному по теме, отложил ее в сторону.
  • Пьеса Серая зона появилась на сценических подмостках в 1996 году. Она выдержала несколько сезонов и почила ряд престижных театральных призов, включая награду Оппенгеймера и четыре премии «Оби».
  • Лишь четыре персонажа в пьесе и фильме основаны на реальных исторических лицах. Это Нижли, Менгеле, обершарфюрер Эрик Махсфелдт и найденная заключенными выжившая девочка. Все прочие герои частично придуманы Нелсоном, частично родились на основе пяти дневников «зондеркоммандос», захороненных в Биркенау.
  • Женские характеры также были придуманы Нелсоном, однако не был выдуман сам факт существования женского завода по выпуску боеприпасов, который находился недалеко от Биркенау.
  • В одной из сцен режиссер хотел дать общий план бараков Аушвица, представив его как идиллическую пасторальную картину, некий внешний фон для всех несведущих. Однако он отказался от этой идеи, поскольку не хотел нарушать созданную в фильме атмосферу внутренней тесноты бараков.
  • Практически все декорации были построены недалеко от столицы Болгарии Софии. Там же было снято 90% всей ленты. Декорации бараков были выстроены по чертежам настоящих бараков Аушвица-Биркенау.
  • Для усиление атмосферы страха и ужаса Нелсон предложил оператору Расселлу Ли Файну в нескольких сценах использовать ручную камеру.
  • Хотя в титрах стоит имя композитора Джеффа Данны, фактически в самой ленте никакой музыки нет. Но так как он все-таки написал по заказу Нелсона оригинальную партитуру, а также осуществил аранжировку тех фрагментов из Брамса и Штрауса, которые все-таки был использованы, он получил свое право на место в титрах.
  • Харви Кейтел, сыгравший в Серой зоне нациста Махсфелдта, в том же 2001 году в драме Мнения сторон Иштвана Сабо исполнил роль американского полковника, расследующего дело о причастности дирижера Вильгельма Фурванглера к преступлениям нацистов.

Инфо

Общее
Уникальный идентификатор : 198180064118092363008825689900985558940 (0x9518178C6E69F0F0998DD337CEDF279C)
Полное имя : E:\The Grey Zone .mkv
Формат : Matroska
Версия формата : Version 2
Размер файла : 7,07 Гбайт
Продолжительность : 1 ч. 48 м.
Режим общего битрейта : Переменный
Общий поток : 9343 Кбит/сек
Дата кодирования : UTC 2011-05-24 17:25:05
Программа кодирования : mkvmerge v3.0.0 ('Hang up your Hang-Ups') built on Jan 6 2010 22:49:38
Библиотека кодирования : libebml v0.7.9 + libmatroska v0.8.1
Видео
Идентификатор : 1
Формат : MPEG Video
Версия формата : Version 2
Профиль формата : Main@High
Параметр BVOP формата : Да
Параметр матрицы формата : Выборочная
Идентификатор кодека : V_MPEG2
Идентификатор кодека/Информация : MPEG 1 or 2 Video
Продолжительность : 1 ч. 48 м.
Вид битрейта : Переменный
Битрейт : 8389 Кбит/сек
Максимальный битрейт : 20,0 Мбит/сек
Ширина : 1920 пикселей
Высота : 1080 пикселей
Соотношение сторон : 16:9
Частота кадров : 29,970 кадров/сек
Стандарт вещания : Component
Цветовое пространство : YUV
Субдискретизация насыщенности : 4:2:0
Битовая глубина : 8 бит
Тип развёртки : Чересстрочная
Порядок развёртки : Нижнее поле первое
Метод сжатия : С потерями
Бит/(Пиксели*Кадры) : 0.135
Размер потока : 6,35 Гбайт (90%)
Заголовок : RG Uralmix
Default : Нет
Forced : Нет
Основные цвета : BT.709
Характеристики трансфера : BT.709
Коэффициенты матрицы : BT.709
Аудио #1
Идентификатор : 2
Формат : AC-3
Формат/Информация : Audio Coding 3
Расширение режима : CM (complete main)
Идентификатор кодека : A_AC3
Продолжительность : 1 ч. 48 м.
Вид битрейта : Постоянный
Битрейт : 384 Кбит/сек
Каналы : 6 каналов
Расположение каналов : Front: L C R, Side: L R, LFE
Частота : 48,0 КГц
Битовая глубина : 16 бит
Метод сжатия : С потерями
Размер потока : 298 Мбайт (4%)
Язык : Russian
Default : Да
Forced : Нет
Аудио #2
Идентификатор : 3
Формат : AC-3
Формат/Информация : Audio Coding 3
Расширение режима : CM (complete main)
Идентификатор кодека : A_AC3
Продолжительность : 1 ч. 48 м.
Вид битрейта : Постоянный
Битрейт : 384 Кбит/сек
Каналы : 6 каналов
Расположение каналов : Front: L C R, Side: L R, LFE
Частота : 48,0 КГц
Битовая глубина : 16 бит
Метод сжатия : С потерями
Размер потока : 298 Мбайт (4%)
Язык : English
Default : Нет
Forced : Нет
Текст #1
Идентификатор : 4
Формат : UTF-8
Идентификатор кодека : S_TEXT/UTF8
Идентификатор кодека/Информация : UTF-8 Plain Text
Язык : Russian
Default : Нет
Forced : Нет
Текст #2
Идентификатор : 5
Формат : UTF-8
Идентификатор кодека : S_TEXT/UTF8
Идентификатор кодека/Информация : UTF-8 Plain Text
Язык : English
Default : Нет
Forced : Нет

Скриншоты

[Торрент-статистика]
[Профиль]  [ЛС] 
Показать сообщения:    
Ответить на тему

Текущее время: Сегодня 23:04

Часовой пояс: GMT + 4



Вы не можете начинать темы
Вы не можете отвечать на сообщения
Вы не можете редактировать свои сообщения
Вы не можете удалять свои сообщения
Вы не можете голосовать в опросах
Вы не можете прикреплять файлы к сообщениям
Вы не можете скачивать файлы