Хранитель времени / Hugo (Мартин Скорсезе) [2011, драма, детектив, приключения, семейный, BDRip 1080p] R5

Ответить на тему
 
Автор
Сообщение

diim ®

Пол:

Стаж: 2 года 7 месяцев

Сообщений: 1034

Репутация: 112 [+] [-]

Пост 24-Фев-2012 11:51

[Цитировать] 

Хранитель времени / Hugo
Год выпуска: 2011
Страна: США
Жанр: драма, детектив, приключения, семейный
Продолжительность: 02:06:21
Перевод: Профессиональный (полное дублирование)
Режиссер: Мартин Скорсезе
Сценарий: Джон Логан, Брайан Селзник
Продюсер: Джонни Депп, Тим Хэдингтон, Грэм Кинг, Мартин Скорсезе, Дэвид Крокетт
Оператор: Роберт Ричардсон
Композитор: Говард Шор
В ролях: Аса Баттерфилд, Бен Кингсли, Саша Барон Коэн, Хлоя Грейс Морец, Рэй Уинстон, Эмили Мортимер, Кристофер Ли, Хелен МакКрори, Майкл Стулбарг, Фрэнсис де ла Тур, Ричард Гриффитс, Джуд Лоу
Дублёры: Никита Сологалов, Никита Прозоровский, Александр Гаврилин, Александр Новиков, Борис Быстров, Любовь Германова, Диомид Виноградов, Василий Дахненко-Описание: Приключения находчивого мальчика, который должен раскрыть секрет, оставленный его отцом, чтобы найти то место, которое сможет назвать своим домом.-Качество: BDRip 1080p R5
Формат: MKV
Видео: H264 / 13400 kbps / 1920x1080 / 23.976 fps / L 4.1
Аудио: Russian: AC3, 448 kb/s 48 kHz (6 ch) / English: DTS, 1510 kb/s 48 kHz (6 ch)-

Награды

Оскар, 2012 год
Номинации:
Лучший фильм
Лучший режиссер (Мартин Скорсезе)
Лучший адаптированный сценарий
Лучшая работа оператора
Лучшие декорации
Лучшие костюмы
Лучший звук
Лучший монтаж
Лучший монтаж звука
Лучшие визуальные эффекты
Лучший саундтрек
Золотой глобус, 2012 год
Победитель:
Лучший режиссер (Мартин Скорсезе)
Номинации:
Лучший фильм (драма)
Лучший саундтрек
Британская академия, 2012 год
Победитель:
Лучший звук
Лучшая работа художника-постановщика (Данте Ферретти, Франческа Ло Скьяво)
Номинации:
Лучший режиссер (Мартин Скорсезе)
Лучшая работа оператора (Роберт Ричардсон)
Лучшие костюмы
Лучший монтаж
Лучшие визуальные эффекты
Лучший саундтрек
Лучший грим/прически

Знаете ли Вы, что...

  • По-французски имя героя должно произноситься как Юго. Но ещё интереснее тот факт, что это имя могло быть дано мальчику в честь французского писателя Виктора Гюго (у нас закрепилось неверное произношение его фамилии).

MI

Код:
Общее
Полное имя                       : Hugo.2011.D.BDRip.1080p.ELEKTRI4KA.mkv
Формат                           : Matroska
Версия формата                   : Version 2
Размер файла                     : 13,5 Гбайт
Продолжительность                : 2 ч. 6 м.
Общий поток                      : 15,3 Мбит/сек
Название фильма                  : Hugo.2011.D.BDRip.1080p.ELEKTRI4KA
Дата кодирования                 : UTC 2012-02-21 20:11:05
Программа кодирования            : mkvmerge v5.2.1 ('A Far Off Place') built on Jan  2 2012 23:21:10
Библиотека кодирования           : libebml v1.2.3 + libmatroska v1.3.0
Видео
Идентификатор                    : 1
Формат                           : AVC
Формат/Информация                : Advanced Video Codec
Профиль формата                  : High@L4.1
Параметр CABAC формата           : Да
Параметр ReFrames формата        : 4 кадра
Параметры GOP формата            : M=1, N=24
Идентификатор кодека             : V_MPEG4/ISO/AVC
Продолжительность                : 2 ч. 6 м.
Битрейт                          : 13,4 Мбит/сек
Ширина                           : 1920 пикс.
Высота                           : 1080 пикс.
Соотношение сторон               : 16:9
Частота кадров                   : 23,976 кадр/сек
Цветовое пространство            : YUV
Подвыборка цветности             : 4:2:0
Битовая глубина                  : 8 бит
Тип развёртки                    : Прогрессивная
Бит/(Пиксели*Кадры)              : 0.269
Размер потока                    : 11,5 Гбайт (85%)
Заголовок                        : Hugo.2011.D.BDRip.1080p.ELEKTRI4KA
Библиотека кодирования           : x264 core 120 r2164 da19765
Настройки программы              : cabac=1 / ref=4 / deblock=1:-3:-3 / analyse=0x3:0x133 / me=umh / subme=10 / psy=1 / psy_rd=1.00:0.00 / mixed_ref=1 / me_range=48 / chroma_me=1 / trellis=2 / 8x8dct=1 / cqm=0 / deadzone=21,11 / fast_pskip=1 / chroma_qp_offset=-2 / threads=12 / sliced_threads=0 / nr=0 / decimate=0 / interlaced=0 / bluray_compat=0 / constrained_intra=0 / bframes=6 / b_pyramid=2 / b_adapt=2 / b_bias=0 / direct=3 / weightb=1 / open_gop=0 / weightp=2 / keyint=250 / keyint_min=23 / scenecut=40 / intra_refresh=0 / rc_lookahead=60 / rc=2pass / mbtree=1 / bitrate=13361 / ratetol=1.0 / qcomp=0.60 / qpmin=0 / qpmax=69 / qpstep=4 / cplxblur=20.0 / qblur=0.5 / vbv_maxrate=50000 / vbv_bufsize=50000 / nal_hrd=none / ip_ratio=1.50 / aq=1:1.00
Язык                             : English
Аудио #1
Идентификатор                    : 2
Формат                           : AC-3
Формат/Информация                : Audio Coding 3
Расширение режима                : CM (complete main)
Идентификатор кодека             : A_AC3
Продолжительность                : 2 ч. 6 м.
Вид битрейта                     : Постоянный
Битрейт                          : 448 Кбит/сек
Каналы                           : 6 каналов
Расположение каналов             : Front: L C R, Side: L R, LFE
Частота                          : 48,0 КГц
Битовая глубина                  : 16 бит
Метод сжатия                     : С потерями
Размер потока                    : 405 Мбайт (3%)
Заголовок                        : AC3@448 kb/s
Язык                             : Russian
Аудио #2
Идентификатор                    : 3
Формат                           : DTS
Формат/Информация                : Digital Theater Systems
Идентификатор кодека             : A_DTS
Продолжительность                : 2 ч. 6 м.
Вид битрейта                     : Постоянный
Битрейт                          : 1510 Кбит/сек
Каналы                           : 6 каналов
Расположение каналов             : Front: L C R, Side: L R, LFE
Частота                          : 48,0 КГц
Битовая глубина                  : 24 бит
Метод сжатия                     : С потерями
Размер потока                    : 1,33 Гбайт (10%)
Язык                             : English
Текст
Идентификатор                    : 4
Формат                           : UTF-8
Идентификатор кодека             : S_TEXT/UTF8
Идентификатор кодека/Информация  : UTF-8 Plain Text
Язык                             : English
Меню
00:00:00.000                     : en:00:00:00.000
00:09:35.533                     : en:00:09:35.533
00:17:20.665                     : en:00:17:20.665
00:23:32.911                     : en:00:23:32.911
00:30:34.541                     : en:00:30:34.541
00:38:26.262                     : en:00:38:26.262
00:47:36.270                     : en:00:47:36.270
00:55:37.543                     : en:00:55:37.543
01:03:43.695                     : en:01:03:43.695
01:12:46.862                     : en:01:12:46.862
01:19:59.169                     : en:01:19:59.169
01:27:10.100                     : en:01:27:10.100
01:33:03.495                     : en:01:33:03.495
01:42:41.280                     : en:01:42:41.280
01:53:47.779                     : en:01:53:47.779
01:59:58.441                     : en:01:59:58.441

Скриншоты

[Торрент-статистика]
[Профиль]  [ЛС] 
Показать сообщения:    
Ответить на тему

Текущее время: Сегодня 16:03

Часовой пояс: GMT + 4



Вы не можете начинать темы
Вы не можете отвечать на сообщения
Вы не можете редактировать свои сообщения
Вы не можете удалять свои сообщения
Вы не можете голосовать в опросах
Вы не можете прикреплять файлы к сообщениям
Вы не можете скачивать файлы