Хранитель времени / Hugo (Мартин Скорсезе) [(2011),драма, детектив, приключения, семейный, BDRip 720p]

Ответить на тему
 
Автор
Сообщение

diim ®

Пол:

Стаж: 1 год 10 месяцев

Сообщений: 1033

Репутация: 112 [+] [-]

Пост 24-Фев-2012 11:48

[Цитировать] 

Хранитель времени / HugoГод выхода: 2011
Страна: США
Жанр: драма, детектив, приключения, семейный, ...
Продолжительность: 02:06:21
Перевод: Дублированное [лицензия]
Режиссер: Мартин Скорсезе
Сценарий: Джон Логан, Брайан Селзник
Продюсер: Джонни Депп, Тим Хэдингтон, Грэм Кинг, ...
Оператор: Роберт Ричардсон
Композитор: Говард Шор
В ролях: Хлоя Морец, Эмили Мортимер, Джуд Лоу ,Хелен МакКрори, Кристофер Ли , Саша Барон Коэн, Бен Кингсли Рэй Уинстоун, Ричард Гриффитс, Аса Баттерфилд
Описание: Действие разворачивается во Франции начала 30-х. Главный герой, мальчик-сирота Хьюго, проживающий в стенах парижского вокзала со своим дядей-алкоголиком, случайно находит таинственный механизм, созданный знаменитым фильммейкером Жоржем Мелье. Эта находка запускает цепную реакцию удивительных событий, которые в конечном итоге помогут Хьюго разгадать тайну его покойного отца.- -Бюджет: $170 000 000
Cборы в США: $67 287 363
Cборы в мире: + $39 700 000 = $106 987 363
Cборы в России: $5 892 530-Качество BDRip 720p R5
Формат: Mkv
Видео: MPEG4 Video (H264) 1280x720 23.98fps
Аудио 1: Dolby AC3 48000Hz 6ch 448 Kbps
Аудио 2: DTS 48000Hz 6ch 1 510 Kbps
Subtitle: Utf-8 (Eng)
Семпл

MediaInfo

General
Unique ID : 185564746018201716411249003974388227146 (0x8B9A7858561F1954B9B3B7B63F1E1C4A)
Complete name : E:\Download\Hugo.2011.D.BDRip.720p.ELEKTRI4KA.mkv
Format : Matroska
Format version : Version 2
File size : 6.96 GiB
Duration : 2h 6mn
Overall bit rate : 7 884 Kbps
Movie name : Hugo.2011.D.BDRip.720p.ELEKTRI4KA
Encoded date : UTC 2012-02-21 16:27:45
Writing application : mkvmerge v5.2.1 ('A Far Off Place') built on Jan 2 2012 23:21:10
Writing library : libebml v1.2.3 + libmatroska v1.3.0
Video
ID : 1
Format : AVC
Format/Info : Advanced Video Codec
Format profile : High@L4.1
Format settings, CABAC : Yes
Format settings, ReFrames : 9 frames
Codec ID : V_MPEG4/ISO/AVC
Duration : 2h 6mn
Bit rate : 5 925 Kbps
Width : 1 280 pixels
Height : 720 pixels
Display aspect ratio : 16:9
Frame rate : 23.976 fps
Color space : YUV
Chroma subsampling : 4:2:0
Bit depth : 8 bits
Scan type : Progressive
Bits/(Pixel*Frame) : 0.268
Stream size : 5.09 GiB (73%)
Title : Hugo.2011.D.BDRip.720p.ELEKTRI4KA
Writing library : x264 core 120 r2164 da19765
Encoding settings : cabac=1 / ref=9 / deblock=1:-3:-3 / analyse=0x3:0x113 / me=umh / subme=10 / psy=1 / psy_rd=1.00:0.10 / mixed_ref=1 / me_range=48 / chroma_me=1 / trellis=2 / 8x8dct=1 / cqm=0 / deadzone=21,11 / fast_pskip=0 / chroma_qp_offset=-5 / threads=9 / sliced_threads=0 / nr=0 / decimate=0 / interlaced=0 / bluray_compat=0 / constrained_intra=0 / bframes=5 / b_pyramid=2 / b_adapt=2 / b_bias=0 / direct=3 / weightb=1 / open_gop=0 / weightp=2 / keyint=250 / keyint_min=23 / scenecut=40 / intra_refresh=0 / rc_lookahead=120 / rc=2pass / mbtree=1 / bitrate=5925 / ratetol=1.0 / qcomp=0.60 / qpmin=0 / qpmax=69 / qpstep=4 / cplxblur=20.0 / qblur=0.5 / vbv_maxrate=40000 / vbv_bufsize=40000 / nal_hrd=none / ip_ratio=1.40 / aq=2:0.80
Language : English
Default : No
Forced : No
Audio #1
ID : 2
Format : AC-3
Format/Info : Audio Coding 3
Mode extension : CM (complete main)
Codec ID : A_AC3
Duration : 2h 6mn
Bit rate mode : Constant
Bit rate : 448 Kbps
Channel(s) : 6 channels
Channel positions : Front: L C R, Side: L R, LFE
Sampling rate : 48.0 KHz
Bit depth : 16 bits
Compression mode : Lossy
Stream size : 405 MiB (6%)
Title : AC3@448 kb/s
Language : Russian
Default : No
Forced : No
Audio #2
ID : 3
Format : DTS
Format/Info : Digital Theater Systems
Codec ID : A_DTS
Duration : 2h 6mn
Bit rate mode : Constant
Bit rate : 1 510 Kbps
Channel(s) : 6 channels
Channel positions : Front: L C R, Side: L R, LFE
Sampling rate : 48.0 KHz
Bit depth : 24 bits
Compression mode : Lossy
Stream size : 1.33 GiB (19%)
Language : English
Default : No
Forced : No
Text
ID : 4
Format : UTF-8
Codec ID : S_TEXT/UTF8
Codec ID/Info : UTF-8 Plain Text
Language : English
Default : No
Forced : No
Menu
00:00:00.000 : en:00:00:00.000
00:09:35.533 : en:00:09:35.533
00:17:20.665 : en:00:17:20.665
00:23:32.911 : en:00:23:32.911
00:30:34.541 : en:00:30:34.541
00:38:26.262 : en:00:38:26.262
00:47:36.270 : en:00:47:36.270
00:55:37.543 : en:00:55:37.543
01:03:43.695 : en:01:03:43.695
01:12:46.862 : en:01:12:46.862
01:19:59.169 : en:01:19:59.169
01:27:10.100 : en:01:27:10.100
01:33:03.495 : en:01:33:03.495
01:42:41.280 : en:01:42:41.280
01:53:47.779 : en:01:53:47.779
01:59:58.441 : en:01:59:58.441

Скриншоты

[Торрент-статистика]
[Профиль]  [ЛС] 

virus82

Стаж: 4 года 5 месяцев

Сообщений: 9

Репутация: 4 [+] [-]

Откуда: Башкирия

Пост 06-Июн-2012 20:19 (спустя 3 месяца 11 дней)

[Цитировать] 

Скачаю встану на раздачу,кто скачал не уходите с раздачи
[Торрент-статистика]
[Профиль]  [ЛС] 
Показать сообщения:    
Ответить на тему

Текущее время: Сегодня 15:35

Часовой пояс: GMT + 4



Вы не можете начинать темы
Вы не можете отвечать на сообщения
Вы не можете редактировать свои сообщения
Вы не можете удалять свои сообщения
Вы не можете голосовать в опросах
Вы не можете прикреплять файлы к сообщениям
Вы не можете скачивать файлы