Такие разные близнецы / Jack and Jill (Деннис Дуган) [2011, комедия, BDRip 1080p] R5

Ответить на тему
 
Автор
Сообщение

diim ®

Пол:

Стаж: 2 года 9 месяцев

Сообщений: 1034

Репутация: 112 [+] [-]

Пост 24-Фев-2012 11:33

[Цитировать] 

Такие разные близнецы / Jack and JillГод выпуска: 2011
Страна: США
Слоган: «Мне конец... Приехала сестра-близнец»
Жанр: комедия
Продолжительность: 01:30:49
Перевод: Профессиональный (полное дублирование)
Режиссер: Деннис Дуган
Сценарий: Стив Корен, Адам Сэндлер, Бен Зук
Продюсер: Тодд Гарнер, Джек Джиррапуто, Адам Сэндлер, Бэрри Бернарди, Роберт Шмигель
Оператор: Дин Канди
Композитор: Руперт Грегсон-Уильямс
В ролях: Адам Сэндлер, Аль Пачино, Кэти Холмс, Элоди Тунье, Роэн Чанд, Эудженио Дербез, Дэвид Спейд, Ник Свардсон, Тим Медоуз, Аллен Коверт, Норм МакДональд, Джеффри Пирсон
Дублёры: Сергей Бурунов, Владимир Еремин, Александра Фатхи, Анна Денисова, Сергей Балабанов, Всеволод Кузнецов, Диомид Виноградов-Описание: В центре сюжета - семейный мужчина по имени Джек, к которому на День Благодарения нагрянула в гости его взбалмошная сестра-близняшка Джилл. И ладно бы погостила да махнула ручкой, так ведь нет: Джилл прочно обосновалась в доме братца и, кажется, в ближайшее время не собирается уезжать.-Качество: BDRip 1080p R5
Формат: MKV
Видео: H264 / 11000 kbps / 1920x1040 / 23.976 fps / L 4.1
Аудио: Russian: AC3, 448 kb/s 48 kHz (6 ch) / English: DTS, 1510 kb/s 48 kHz (6 ch)

MI

Код:
Общее
Полное имя                       : Jack.and.Jill.2011.BDRip.1080p.ELEKTRI4KA.mkv
Формат                           : Matroska
Версия формата                   : Version 2
Размер файла                     : 8,21 Гбайт
Продолжительность                : 1 ч. 30 м.
Общий поток                      : 12,9 Мбит/сек
Название фильма                  : Jack.and.Jill.2011.D.BDRip.1080p.ELEKTRI4KA
Дата кодирования                 : UTC 2012-02-21 16:46:53
Программа кодирования            : mkvmerge v5.2.1 ('A Far Off Place') built on Jan  2 2012 23:21:10
Библиотека кодирования           : libebml v1.2.3 + libmatroska v1.3.0
Видео
Идентификатор                    : 1
Формат                           : AVC
Формат/Информация                : Advanced Video Codec
Профиль формата                  : High@L4.1
Параметр CABAC формата           : Да
Параметр ReFrames формата        : 4 кадра
Идентификатор кодека             : V_MPEG4/ISO/AVC
Продолжительность                : 1 ч. 30 м.
Битрейт                          : 11,0 Мбит/сек
Ширина                           : 1920 пикс.
Высота                           : 1040 пикс.
Соотношение сторон               : 16:9
Частота кадров                   : 23,976 кадр/сек
Цветовое пространство            : YUV
Подвыборка цветности             : 4:2:0
Битовая глубина                  : 8 бит
Тип развёртки                    : Прогрессивная
Бит/(Пиксели*Кадры)              : 0.229
Размер потока                    : 6,81 Гбайт (83%)
Заголовок                        : Jack.and.Jill.2011.D.BDRip.1080p.ELEKTRI4KA
Библиотека кодирования           : x264 core 119 r2106 07efeb4
Настройки программы              : cabac=1 / ref=4 / deblock=1:-3:-3 / analyse=0x3:0x113 / me=umh / subme=10 / psy=1 / psy_rd=1.05:0.10 / mixed_ref=1 / me_range=48 / chroma_me=1 / trellis=2 / 8x8dct=1 / cqm=1 / deadzone=21,11 / fast_pskip=0 / chroma_qp_offset=-2 / threads=12 / sliced_threads=0 / nr=0 / decimate=1 / interlaced=0 / bluray_compat=0 / constrained_intra=0 / bframes=6 / b_pyramid=2 / b_adapt=2 / b_bias=0 / direct=3 / weightb=1 / open_gop=0 / weightp=2 / keyint=250 / keyint_min=23 / scenecut=40 / intra_refresh=0 / rc_lookahead=60 / rc=2pass / mbtree=1 / bitrate=10982 / ratetol=2.0 / qcomp=0.70 / qpmin=3 / qpmax=69 / qpstep=4 / cplxblur=20.0 / qblur=0.5 / vbv_maxrate=40000 / vbv_bufsize=30000 / nal_hrd=none / ip_ratio=1.40 / aq=2:1.00
Язык                             : English
Аудио #1
Идентификатор                    : 2
Формат                           : AC-3
Формат/Информация                : Audio Coding 3
Расширение режима                : CM (complete main)
Идентификатор кодека             : A_AC3
Продолжительность                : 1 ч. 30 м.
Вид битрейта                     : Постоянный
Битрейт                          : 448 Кбит/сек
Каналы                           : 6 каналов
Расположение каналов             : Front: L C R, Side: L R, LFE
Частота                          : 48,0 КГц
Битовая глубина                  : 16 бит
Метод сжатия                     : С потерями
Размер потока                    : 291 Мбайт (3%)
Заголовок                        : AC3@448 kb/s
Язык                             : Russian
Аудио #2
Идентификатор                    : 3
Формат                           : DTS
Формат/Информация                : Digital Theater Systems
Идентификатор кодека             : A_DTS
Продолжительность                : 1 ч. 30 м.
Вид битрейта                     : Постоянный
Битрейт                          : 1510 Кбит/сек
Каналы                           : 6 каналов
Расположение каналов             : Front: L C R, Side: L R, LFE
Частота                          : 48,0 КГц
Битовая глубина                  : 24 бит
Метод сжатия                     : С потерями
Размер потока                    : 981 Мбайт (12%)
Язык                             : English
Текст
Идентификатор                    : 4
Формат                           : UTF-8
Идентификатор кодека             : S_TEXT/UTF8
Идентификатор кодека/Информация  : UTF-8 Plain Text
Язык                             : English
Меню
00:00:00.000                     : en:00:00:00.000
00:09:41.790                     : en:00:09:41.790
00:16:52.929                     : en:00:16:52.929
00:22:14.708                     : en:00:22:14.708
00:26:29.963                     : en:00:26:29.963
00:31:27.177                     : en:00:31:27.177
00:36:48.581                     : en:00:36:48.581
00:40:37.018                     : en:00:40:37.018
00:45:05.202                     : en:00:45:05.202
00:49:04.692                     : en:00:49:04.692
00:53:34.545                     : en:00:53:34.545
00:59:31.276                     : en:00:59:31.276
01:03:36.187                     : en:01:03:36.187
01:10:06.494                     : en:01:10:06.494
01:16:51.232                     : en:01:16:51.232
01:22:55.220                     : en:01:22:55.220

Скриншоты

[Торрент-статистика]
[Профиль]  [ЛС] 
Показать сообщения:    
Ответить на тему

Текущее время: Сегодня 04:04

Часовой пояс: GMT + 4



Вы не можете начинать темы
Вы не можете отвечать на сообщения
Вы не можете редактировать свои сообщения
Вы не можете удалять свои сообщения
Вы не можете голосовать в опросах
Вы не можете прикреплять файлы к сообщениям
Вы не можете скачивать файлы