Другой мир: Восстание ликанов / Underworld: Rise of the Lycans (Патрик Татопулос / Patrick Tatopoulos) [2009 г., ужасы, боевик, триллер, фэнтези, Blu-ray disc]

Ответить на тему
 
Автор
Сообщение

Ратибор ®

Стаж: 5 лет 10 месяцев

Сообщений: 201

Репутация: 10 [+] [-]

Пост 22-Фев-2012 17:29

[Цитировать] 

Другой мир: Восстание ликанов / Underworld: Rise of the Lycans
Год выпуска: 2009
Страна: США
Жанр: ужасы, боевик, триллер, фэнтези
Продолжительность: 01:32:28
Перевод: Профессиональный (полное дублирование)
Режиссер: Патрик Татопулос / Patrick Tatopoulos
В ролях: Майкл Шин, Билл Найи, Рона Митрэ, Стивен Макинтош, Кевин Гревье, Дэвид Эштон, Джеральдин Брофи, Александр Кэрролл, Элизабет Хоторн
Описание: История, прослеживающая происхождение вековой кровной мести, между аристократическими вампирами, известными как Торговцы смертью и их рабами. Молодой ликан по имени Люциан — мощный лидер, который сплачивает оборотней, чтобы выступить против Виктора, жестокого короля вампиров, который поработил их. К Люциану присоединяется Соня, и помогает ему в его борьбе против смертоносной армии торговцев смертью и борьбе за свободу ликанов.
Доп. информация: Бонусы:
* Рассказ о съёмках
* Комментарии режиссёра
* Общение в фильме
* «Картинка в картинке»
* Интерактивная карта
* Происхождение героев
* Создание образов
* Музыкальный видеоклип
* Экранная заставка
Качество: Blu-ray
Формат: BD disk
Видео кодек: H.264
Аудио кодек: AC3, TrueHD
Видео: 1920x1080, 23.976 fps, H.264, ~23737 kbps
Аудио 1: Английский (TrueHD 5.1, ~3729 kb/s)
Аудио 2: Чешский (DD 5.1, 640 kb/s)
Аудио 3: Венгерский (DD 5.1, 640 kb/s)
Аудио 4: Польский (DD 5.1, 640 kb/s)
Аудио 5: Русский (TrueHD 5.1, ~1743 kb/s)
Аудио 6: Украинский (DD 5.1, 640 kb/s)
Аудио 7: Английский (DD 2.0, 192 kb/s, коменты)
Аудио 8: Английский (DTS Express, 192 kb/s, коменты)
Субтитры: Английские, Арабские, Болгарские, Чешские, Венгерские, Польские,
Румынские, Сербские, Эстонские, Литовские, Словацкие, Турецкие

Скриншоты

BDInfo

Disc Title: Другой мир Восстание ликанов Underworld Rise of the Lycans [BD disk] (2009)
Disc Size: 43 174 641 672 bytes
Protection: AACS
BD-Java: Yes
BDInfo: 0.5.4
Notes:
BDINFO HOME:
Cinema Squid
http://www.cinemasquid.com/blu-ray/tools/bdinfo
INCLUDES FORUMS REPORT FOR:
AVS Forum Blu-ray Audio and Video Specifications Thread
http://www.avsforum.com/avs-vb/showthread.php?t=1155731
********************
PLAYLIST: 00450.MPLS
********************
<--- BEGIN FORUMS PASTE --->
Код:
Total Video
Title Codec Length Movie Size Disc Size Bitrate Bitrate Main Audio Track Secondary Audio Track
----- ------ ------- -------------- -------------- ------- ------- ------------------ ---------------------
00450.MPLS AVC 1:32:28 29 637 580 800 43 174 641 672 42,73 23,74 Dolby TrueHD 5.1 3729Kbps (48kHz/24-bit)
Код:
DISC INFO:
Disc Title: Другой мир Восстание ликанов Underworld Rise of the Lycans [BD disk] (2009)
Disc Size: 43 174 641 672 bytes
Protection: AACS
BD-Java: Yes
BDInfo: 0.5.4
PLAYLIST REPORT:
Name: 00450.MPLS
Length: 1:32:28 (h:m:s)
Size: 29 637 580 800 bytes
Total Bitrate: 42,73 Mbps
(*) Indicates included stream hidden by this playlist.
VIDEO:
Codec Bitrate Description
----- ------- -----------
MPEG-4 AVC Video 23737 kbps 1080p / 23,976 fps / 16:9 / High Profile 4.1
* MPEG-4 AVC Video 4555 kbps 480p / 23,976 fps / 16:9 / High Profile 3.2
AUDIO:
Codec Language Bitrate Description
----- -------- ------- -----------
Dolby TrueHD Audio English 3729 kbps 5.1 / 48 kHz / 3729 kbps / 24-bit (AC3 Embedded: 5.1 / 48 kHz / 640 kbps / DN -4dB)
Dolby TrueHD Audio Russian 1743 kbps 5.1 / 48 kHz / 1743 kbps / 16-bit (AC3 Embedded: 5.1 / 48 kHz / 640 kbps / DN -4dB)
Dolby Digital Audio Czech 640 kbps 5.1 / 48 kHz / 640 kbps / DN -4dB
Dolby Digital Audio Hungarian 640 kbps 5.1 / 48 kHz / 640 kbps / DN -4dB
Dolby Digital Audio Polish 640 kbps 5.1 / 48 kHz / 640 kbps / DN -4dB
Dolby Digital Audio Ukrainian 640 kbps 5.1 / 48 kHz / 640 kbps / DN -4dB
Dolby Digital Audio English 192 kbps 2.0 / 48 kHz / 192 kbps / DN -4dB / Dolby Surround
* DTS Express English 192 kbps 2.0 / 48 kHz / 192 kbps / 16-bit
SUBTITLES:
Codec Language Bitrate Description
----- -------- ------- -----------
Presentation Graphics English 17,059 kbps
Presentation Graphics English 67,220 kbps
* Presentation Graphics English 53,551 kbps
Presentation Graphics Arabic 8,614 kbps
Presentation Graphics Bulgarian 15,364 kbps
Presentation Graphics Croatian 15,300 kbps
Presentation Graphics Czech 13,878 kbps
Presentation Graphics Estonian 14,675 kbps
Presentation Graphics Greek 16,772 kbps
Presentation Graphics Greek 54,373 kbps
Presentation Graphics Hebrew 12,967 kbps
Presentation Graphics Hungarian 13,898 kbps
Presentation Graphics Icelandic 16,833 kbps
Presentation Graphics Lithuanian 16,789 kbps
Presentation Graphics Polish 15,632 kbps
Presentation Graphics Romanian 16,893 kbps
Presentation Graphics Romanian 53,755 kbps
* Presentation Graphics Romanian 45,215 kbps
Presentation Graphics Serbian 16,093 kbps
Presentation Graphics Slovak 16,336 kbps
Presentation Graphics Slovenian 14,976 kbps
Presentation Graphics Turkish 15,795 kbps
FILES:
Name Time In Length Size Total Bitrate
---- ------- ------ ---- -------------
00262.M2TS 0:00:00.000 1:32:28.584 29 637 580 800 42 732
CHAPTERS:
Number Time In Length Avg Video Rate Max 1-Sec Rate Max 1-Sec Time Max 5-Sec Rate Max 5-Sec Time Max 10Sec Rate Max 10Sec Time Avg Frame Size Max Frame Size Max Frame Time
------ ------- ------ -------------- -------------- -------------- -------------- -------------- -------------- -------------- -------------- -------------- --------------
1 0:00:00.000 0:06:19.879 22 147 kbps 35 004 kbps 00:06:03.988 27 064 kbps 00:06:09.452 26 204 kbps 00:06:04.447 115 453 bytes 384 232 bytes 00:00:53.094
2 0:06:19.879 0:05:22.905 25 352 kbps 32 930 kbps 00:08:33.137 26 985 kbps 00:08:29.133 26 243 kbps 00:08:24.212 132 175 bytes 363 035 bytes 00:08:33.846
3 0:11:42.785 0:05:01.843 23 554 kbps 37 115 kbps 00:13:48.160 27 118 kbps 00:16:11.053 26 291 kbps 00:14:17.940 122 801 bytes 494 311 bytes 00:13:48.869
4 0:16:44.628 0:07:48.426 25 109 kbps 31 499 kbps 00:23:20.649 26 247 kbps 00:23:03.173 25 870 kbps 00:23:11.640 130 906 bytes 386 344 bytes 00:20:45.953
5 0:24:33.054 0:05:55.438 25 382 kbps 30 476 kbps 00:25:40.163 26 494 kbps 00:25:36.243 25 978 kbps 00:25:31.238 132 328 bytes 319 547 bytes 00:30:28.493
6 0:30:28.493 0:06:04.655 25 302 kbps 34 572 kbps 00:31:28.386 27 287 kbps 00:31:24.382 26 357 kbps 00:31:19.377 131 915 bytes 701 423 bytes 00:31:29.345
7 0:36:33.149 0:03:44.265 25 190 kbps 32 748 kbps 00:38:41.527 26 828 kbps 00:38:37.523 26 267 kbps 00:38:32.518 131 331 bytes 581 883 bytes 00:38:42.361
8 0:40:17.415 0:06:11.454 24 992 kbps 35 327 kbps 00:43:02.913 27 507 kbps 00:42:58.909 26 467 kbps 00:42:53.904 130 295 bytes 596 268 bytes 00:45:37.568
9 0:46:28.869 0:04:25.723 25 296 kbps 30 011 kbps 00:47:01.109 26 296 kbps 00:46:57.064 25 700 kbps 00:46:52.100 131 883 bytes 344 292 bytes 00:50:18.181
10 0:50:54.593 0:04:13.628 25 320 kbps 27 983 kbps 00:54:18.505 25 827 kbps 00:51:00.557 25 621 kbps 00:54:53.206 132 005 bytes 284 655 bytes 00:51:05.187
11 0:55:08.221 0:05:31.080 25 197 kbps 31 609 kbps 00:57:27.193 26 610 kbps 00:57:55.763 25 785 kbps 00:57:18.101 131 367 bytes 431 704 bytes 00:57:27.986
12 1:00:39.302 0:06:33.976 24 771 kbps 33 332 kbps 01:03:06.824 26 648 kbps 01:03:06.532 25 794 kbps 01:01:27.100 129 146 bytes 506 304 bytes 01:02:48.181
13 1:07:13.279 0:06:16.042 25 066 kbps 32 042 kbps 01:07:54.528 27 004 kbps 01:07:50.524 26 167 kbps 01:07:45.519 130 682 bytes 347 284 bytes 01:12:15.956
14 1:13:29.321 0:03:09.522 24 835 kbps 30 939 kbps 01:13:35.702 26 606 kbps 01:13:31.657 25 612 kbps 01:14:24.543 129 481 bytes 320 922 bytes 01:13:51.260
15 1:16:38.844 0:05:54.312 24 882 kbps 32 338 kbps 01:19:29.222 26 463 kbps 01:17:20.510 25 874 kbps 01:20:30.200 129 722 bytes 344 357 bytes 01:17:25.307
16 1:22:33.156 0:09:55.428 14 884 kbps 36 994 kbps 01:23:03.061 27 460 kbps 01:22:59.057 26 375 kbps 01:22:54.052 77 605 bytes 723 730 bytes 01:23:04.062
STREAM DIAGNOSTICS:
File PID Type Codec Language Seconds Bitrate Bytes Packets
---- --- ---- ----- -------- -------------- -------------- ------------- -----
00262.M2TS 4113 (0x1011) 0x1B AVC 5548,501 23 738 16 463 524 865 89 554 630
00262.M2TS 4352 (0x1100) 0x83 TrueHD eng (English) 5548,501 4 369 3 030 059 512 20 385 883
00262.M2TS 4353 (0x1101) 0x81 AC3 ces (Czech) 5548,501 640 443 888 640 2 600 910
00262.M2TS 4354 (0x1102) 0x81 AC3 hun (Hungarian) 5548,501 640 443 888 640 2 600 910
00262.M2TS 4355 (0x1103) 0x81 AC3 pol (Polish) 5548,501 640 443 888 640 2 600 910
00262.M2TS 4356 (0x1104) 0x83 TrueHD rus (Russian) 5548,501 2 383 1 652 865 528 12 743 344
00262.M2TS 4357 (0x1105) 0x81 AC3 ukr (Ukrainian) 5548,501 640 443 888 640 2 600 910
00262.M2TS 4358 (0x1106) 0x81 AC3 eng (English) 5548,501 192 133 166 592 866 970
00262.M2TS 4608 (0x1200) 0x90 PGS eng (English) 5548,501 17 11 831 344 68 550
00262.M2TS 4609 (0x1201) 0x90 PGS ces (Czech) 5548,501 14 9 625 717 56 375
00262.M2TS 4610 (0x1202) 0x90 PGS hun (Hungarian) 5548,501 14 9 639 334 56 259
00262.M2TS 4611 (0x1203) 0x90 PGS pol (Polish) 5548,501 16 10 842 050 63 014
00262.M2TS 4612 (0x1204) 0x90 PGS ara (Arabic) 5548,501 9 5 974 467 36 450
00262.M2TS 4613 (0x1205) 0x90 PGS bul (Bulgarian) 5548,501 15 10 656 213 61 347
00262.M2TS 4614 (0x1206) 0x90 PGS hrv (Croatian) 5548,501 15 10 611 987 61 930
00262.M2TS 4615 (0x1207) 0x90 PGS est (Estonian) 5548,501 15 10 177 981 58 070
00262.M2TS 4616 (0x1208) 0x90 PGS ell (Greek) 5548,501 17 11 632 306 67 223
00262.M2TS 4617 (0x1209) 0x90 PGS heb (Hebrew) 5548,501 13 8 993 856 52 933
00262.M2TS 4618 (0x120A) 0x90 PGS isl (Icelandic) 5548,501 17 11 674 909 67 213
00262.M2TS 4619 (0x120B) 0x90 PGS lit (Lithuanian) 5548,501 17 11 644 686 67 442
00262.M2TS 4620 (0x120C) 0x90 PGS ron (Romanian) 5548,501 17 11 716 447 67 741
00262.M2TS 4621 (0x120D) 0x90 PGS srp (Serbian) 5548,501 16 11 161 518 64 789
00262.M2TS 4622 (0x120E) 0x90 PGS slk (Slovak) 5548,501 16 11 330 268 65 818
00262.M2TS 4623 (0x120F) 0x90 PGS slv (Slovenian) 5548,501 15 10 386 869 60 695
00262.M2TS 4624 (0x1210) 0x90 PGS tur (Turkish) 5548,501 16 10 955 244 63 766
00262.M2TS 4625 (0x1211) 0x90 PGS eng (English) 5548,501 67 46 621 888 265 362
00262.M2TS 4626 (0x1212) 0x90 PGS ell (Greek) 5548,501 54 37 711 448 216 932
00262.M2TS 4627 (0x1213) 0x90 PGS ron (Romanian) 5548,501 54 37 282 873 214 569
00262.M2TS 4628 (0x1214) 0x90 PGS eng (English) 5548,501 54 37 141 683 209 409
00262.M2TS 4629 (0x1215) 0x90 PGS ron (Romanian) 5548,501 45 31 359 751 179 052
00262.M2TS 6656 (0x1A00) 0xA2 DTS Express eng (English) 5548,501 192 133 167 104 780 276
00262.M2TS 6912 (0x1B00) 0x1B AVC 5548,501 4 555 3 159 298 650 17 257 768
<---- END FORUMS PASTE ---->
QUICK SUMMARY:
Disc Title: Другой мир Восстание ликанов Underworld Rise of the Lycans [BD disk] (2009)
Disc Size: 43 174 641 672 bytes
Protection: AACS
BD-Java: Yes
Playlist: 00450.MPLS
Size: 29 637 580 800 bytes
Length: 1:32:28
Total Bitrate: 42,73 Mbps
Video: MPEG-4 AVC Video / 23737 kbps / 1080p / 23,976 fps / 16:9 / High Profile 4.1
* Video: MPEG-4 AVC Video / 4555 kbps / 480p / 23,976 fps / 16:9 / High Profile 3.2
Audio: English / Dolby TrueHD Audio / 5.1 / 48 kHz / 3729 kbps / 24-bit (AC3 Embedded: 5.1 / 48 kHz / 640 kbps / DN -4dB)
Audio: Russian / Dolby TrueHD Audio / 5.1 / 48 kHz / 1743 kbps / 16-bit (AC3 Embedded: 5.1 / 48 kHz / 640 kbps / DN -4dB)
Audio: Czech / Dolby Digital Audio / 5.1 / 48 kHz / 640 kbps / DN -4dB
Audio: Hungarian / Dolby Digital Audio / 5.1 / 48 kHz / 640 kbps / DN -4dB
Audio: Polish / Dolby Digital Audio / 5.1 / 48 kHz / 640 kbps / DN -4dB
Audio: Ukrainian / Dolby Digital Audio / 5.1 / 48 kHz / 640 kbps / DN -4dB
Audio: English / Dolby Digital Audio / 2.0 / 48 kHz / 192 kbps / DN -4dB / Dolby Surround
* Audio: English / DTS Express / 2.0 / 48 kHz / 192 kbps / 16-bit
Subtitle: English / 17,059 kbps
Subtitle: English / 67,220 kbps
* Subtitle: English / 53,551 kbps
Subtitle: Arabic / 8,614 kbps
Subtitle: Bulgarian / 15,364 kbps
Subtitle: Croatian / 15,300 kbps
Subtitle: Czech / 13,878 kbps
Subtitle: Estonian / 14,675 kbps
Subtitle: Greek / 16,772 kbps
Subtitle: Greek / 54,373 kbps
Subtitle: Hebrew / 12,967 kbps
Subtitle: Hungarian / 13,898 kbps
Subtitle: Icelandic / 16,833 kbps
Subtitle: Lithuanian / 16,789 kbps
Subtitle: Polish / 15,632 kbps
Subtitle: Romanian / 16,893 kbps
Subtitle: Romanian / 53,755 kbps
* Subtitle: Romanian / 45,215 kbps
Subtitle: Serbian / 16,093 kbps
Subtitle: Slovak / 16,336 kbps
Subtitle: Slovenian / 14,976 kbps
Subtitle: Turkish / 15,795 kbps
********************
PLAYLIST: 00715.MPLS
********************
<--- BEGIN FORUMS PASTE --->
Код:
Total Video
Title Codec Length Movie Size Disc Size Bitrate Bitrate Main Audio Track Secondary Audio Track
----- ------ ------- -------------- -------------- ------- ------- ------------------ ---------------------
00715.MPLS AVC 1:32:28 29 637 580 800 43 174 641 672 42,73 23,74 Dolby TrueHD 5.1 3729Kbps (48kHz/24-bit)
Код:
DISC INFO:
Disc Title: Другой мир Восстание ликанов Underworld Rise of the Lycans [BD disk] (2009)
Disc Size: 43 174 641 672 bytes
Protection: AACS
BD-Java: Yes
BDInfo: 0.5.4
PLAYLIST REPORT:
Name: 00715.MPLS
Length: 1:32:28 (h:m:s)
Size: 29 637 580 800 bytes
Total Bitrate: 42,73 Mbps
(*) Indicates included stream hidden by this playlist.
VIDEO:
Codec Bitrate Description
----- ------- -----------
MPEG-4 AVC Video 23737 kbps 1080p / 23,976 fps / 16:9 / High Profile 4.1
MPEG-4 AVC Video 4555 kbps 480p / 23,976 fps / 16:9 / High Profile 3.2
AUDIO:
Codec Language Bitrate Description
----- -------- ------- -----------
Dolby TrueHD Audio English 3729 kbps 5.1 / 48 kHz / 3729 kbps / 24-bit (AC3 Embedded: 5.1 / 48 kHz / 640 kbps / DN -4dB)
Dolby TrueHD Audio Russian 1743 kbps 5.1 / 48 kHz / 1743 kbps / 16-bit (AC3 Embedded: 5.1 / 48 kHz / 640 kbps / DN -4dB)
Dolby Digital Audio Czech 640 kbps 5.1 / 48 kHz / 640 kbps / DN -4dB
Dolby Digital Audio Hungarian 640 kbps 5.1 / 48 kHz / 640 kbps / DN -4dB
Dolby Digital Audio Polish 640 kbps 5.1 / 48 kHz / 640 kbps / DN -4dB
Dolby Digital Audio Ukrainian 640 kbps 5.1 / 48 kHz / 640 kbps / DN -4dB
Dolby Digital Audio English 192 kbps 2.0 / 48 kHz / 192 kbps / DN -4dB / Dolby Surround
DTS Express English 192 kbps 2.0 / 48 kHz / 192 kbps / 16-bit
SUBTITLES:
Codec Language Bitrate Description
----- -------- ------- -----------
* Presentation Graphics English 17,059 kbps
* Presentation Graphics English 67,220 kbps
Presentation Graphics English 53,551 kbps
* Presentation Graphics Arabic 8,614 kbps
* Presentation Graphics Bulgarian 15,364 kbps
* Presentation Graphics Croatian 15,300 kbps
* Presentation Graphics Czech 13,878 kbps
* Presentation Graphics Estonian 14,675 kbps
* Presentation Graphics Greek 16,772 kbps
* Presentation Graphics Greek 54,373 kbps
* Presentation Graphics Hebrew 12,967 kbps
* Presentation Graphics Hungarian 13,898 kbps
* Presentation Graphics Icelandic 16,833 kbps
* Presentation Graphics Lithuanian 16,789 kbps
* Presentation Graphics Polish 15,632 kbps
* Presentation Graphics Romanian 16,893 kbps
* Presentation Graphics Romanian 53,755 kbps
Presentation Graphics Romanian 45,215 kbps
* Presentation Graphics Serbian 16,093 kbps
* Presentation Graphics Slovak 16,336 kbps
* Presentation Graphics Slovenian 14,976 kbps
* Presentation Graphics Turkish 15,795 kbps
FILES:
Name Time In Length Size Total Bitrate
---- ------- ------ ---- -------------
00262.M2TS 0:00:00.000 1:32:28.584 29 637 580 800 42 732
CHAPTERS:
Number Time In Length Avg Video Rate Max 1-Sec Rate Max 1-Sec Time Max 5-Sec Rate Max 5-Sec Time Max 10Sec Rate Max 10Sec Time Avg Frame Size Max Frame Size Max Frame Time
------ ------- ------ -------------- -------------- -------------- -------------- -------------- -------------- -------------- -------------- -------------- --------------
1 0:00:00.000 0:00:50.550 11 192 kbps 31 258 kbps 00:00:21.479 26 400 kbps 00:00:17.392 22 433 kbps 00:00:02.210 58 301 bytes 327 176 bytes 00:00:22.021
2 0:00:50.550 0:05:22.572 23 824 kbps 35 004 kbps 00:06:03.988 26 151 kbps 00:01:35.136 25 788 kbps 00:01:30.215 124 205 bytes 384 232 bytes 00:00:53.094
3 0:06:13.122 0:09:50.339 24 538 kbps 37 115 kbps 00:13:48.160 27 036 kbps 00:14:22.945 26 291 kbps 00:14:17.940 127 932 bytes 494 311 bytes 00:13:48.869
4 0:16:03.462 0:03:34.547 24 971 kbps 32 804 kbps 00:16:14.181 27 118 kbps 00:16:11.053 26 077 kbps 00:16:06.048 130 185 bytes 405 686 bytes 00:16:15.766
5 0:19:38.010 0:02:59.554 24 988 kbps 29 998 kbps 00:21:06.932 26 052 kbps 00:22:20.255 25 679 kbps 00:21:15.315 130 277 bytes 386 344 bytes 00:20:45.953
6 0:22:37.564 0:04:58.881 25 193 kbps 31 499 kbps 00:23:20.649 26 494 kbps 00:25:36.243 25 978 kbps 00:25:31.238 131 343 bytes 368 543 bytes 00:23:21.483
7 0:27:36.446 0:01:08.443 25 443 kbps 28 628 kbps 00:27:54.881 26 055 kbps 00:27:50.877 25 784 kbps 00:27:45.830 132 647 bytes 228 065 bytes 00:27:55.590
8 0:28:44.889 0:02:43.788 25 423 kbps 26 919 kbps 00:30:27.492 25 768 kbps 00:30:24.489 25 622 kbps 00:29:20.383 132 544 bytes 325 391 bytes 00:30:29.494
9 0:31:28.678 0:04:13.586 25 284 kbps 31 178 kbps 00:31:28.678 26 141 kbps 00:33:25.336 25 761 kbps 00:33:20.331 131 821 bytes 701 423 bytes 00:31:29.345
10 0:35:42.265 0:03:22.660 25 182 kbps 32 748 kbps 00:38:41.527 26 828 kbps 00:38:37.523 26 267 kbps 00:38:32.518 131 287 bytes 581 883 bytes 00:38:42.361
11 0:39:04.925 0:02:36.573 25 216 kbps 28 515 kbps 00:40:16.205 26 079 kbps 00:40:12.201 25 617 kbps 00:40:45.985 131 466 bytes 256 998 bytes 00:40:16.872
12 0:41:41.498 0:04:44.325 24 959 kbps 35 327 kbps 00:43:02.913 27 507 kbps 00:42:58.909 26 467 kbps 00:42:53.904 130 125 bytes 596 268 bytes 00:45:37.568
13 0:46:25.824 0:04:18.341 25 295 kbps 30 011 kbps 00:47:01.109 26 296 kbps 00:46:57.064 25 700 kbps 00:46:52.100 131 878 bytes 344 292 bytes 00:50:18.181
14 0:50:44.166 0:01:44.813 25 317 kbps 26 923 kbps 00:51:04.686 25 827 kbps 00:51:00.557 25 577 kbps 00:51:28.627 131 993 bytes 284 655 bytes 00:51:05.187
15 0:52:28.979 0:03:40.511 25 327 kbps 27 983 kbps 00:54:18.505 25 798 kbps 00:52:30.397 25 621 kbps 00:54:53.206 132 045 bytes 274 070 bytes 00:54:13.833
16 0:56:09.491 0:04:36.693 25 145 kbps 31 609 kbps 00:57:27.193 26 610 kbps 00:57:55.763 25 785 kbps 00:57:18.101 131 096 bytes 431 704 bytes 00:57:27.986
17 1:00:46.184 0:03:34.881 24 539 kbps 33 332 kbps 01:03:06.824 26 648 kbps 01:03:06.532 25 794 kbps 01:01:27.100 127 935 bytes 506 304 bytes 01:02:48.181
18 1:04:21.065 0:06:54.372 25 072 kbps 32 042 kbps 01:07:54.528 27 004 kbps 01:07:50.524 26 167 kbps 01:07:45.519 130 713 bytes 347 331 bytes 01:05:56.452
19 1:11:15.437 0:05:03.469 24 953 kbps 31 909 kbps 01:12:15.205 26 606 kbps 01:13:31.657 26 043 kbps 01:13:26.652 130 096 bytes 347 284 bytes 01:12:15.956
20 1:16:18.907 0:01:44.979 24 833 kbps 31 756 kbps 01:17:31.104 26 463 kbps 01:17:20.510 25 745 kbps 01:17:22.095 129 468 bytes 344 357 bytes 01:17:25.307
21 1:18:03.887 0:14:24.697 17 995 kbps 36 994 kbps 01:23:03.061 27 460 kbps 01:22:59.057 26 375 kbps 01:22:54.052 93 822 bytes 723 730 bytes 01:23:04.062
STREAM DIAGNOSTICS:
File PID Type Codec Language Seconds Bitrate Bytes Packets
---- --- ---- ----- -------- -------------- -------------- ------------- -----
00262.M2TS 4113 (0x1011) 0x1B AVC 5548,501 23 738 16 463 524 865 89 554 630
00262.M2TS 4352 (0x1100) 0x83 TrueHD eng (English) 5548,501 4 369 3 030 059 512 20 385 883
00262.M2TS 4353 (0x1101) 0x81 AC3 ces (Czech) 5548,501 640 443 888 640 2 600 910
00262.M2TS 4354 (0x1102) 0x81 AC3 hun (Hungarian) 5548,501 640 443 888 640 2 600 910
00262.M2TS 4355 (0x1103) 0x81 AC3 pol (Polish) 5548,501 640 443 888 640 2 600 910
00262.M2TS 4356 (0x1104) 0x83 TrueHD rus (Russian) 5548,501 2 383 1 652 865 528 12 743 344
00262.M2TS 4357 (0x1105) 0x81 AC3 ukr (Ukrainian) 5548,501 640 443 888 640 2 600 910
00262.M2TS 4358 (0x1106) 0x81 AC3 eng (English) 5548,501 192 133 166 592 866 970
00262.M2TS 4608 (0x1200) 0x90 PGS eng (English) 5548,501 17 11 831 344 68 550
00262.M2TS 4609 (0x1201) 0x90 PGS ces (Czech) 5548,501 14 9 625 717 56 375
00262.M2TS 4610 (0x1202) 0x90 PGS hun (Hungarian) 5548,501 14 9 639 334 56 259
00262.M2TS 4611 (0x1203) 0x90 PGS pol (Polish) 5548,501 16 10 842 050 63 014
00262.M2TS 4612 (0x1204) 0x90 PGS ara (Arabic) 5548,501 9 5 974 467 36 450
00262.M2TS 4613 (0x1205) 0x90 PGS bul (Bulgarian) 5548,501 15 10 656 213 61 347
00262.M2TS 4614 (0x1206) 0x90 PGS hrv (Croatian) 5548,501 15 10 611 987 61 930
00262.M2TS 4615 (0x1207) 0x90 PGS est (Estonian) 5548,501 15 10 177 981 58 070
00262.M2TS 4616 (0x1208) 0x90 PGS ell (Greek) 5548,501 17 11 632 306 67 223
00262.M2TS 4617 (0x1209) 0x90 PGS heb (Hebrew) 5548,501 13 8 993 856 52 933
00262.M2TS 4618 (0x120A) 0x90 PGS isl (Icelandic) 5548,501 17 11 674 909 67 213
00262.M2TS 4619 (0x120B) 0x90 PGS lit (Lithuanian) 5548,501 17 11 644 686 67 442
00262.M2TS 4620 (0x120C) 0x90 PGS ron (Romanian) 5548,501 17 11 716 447 67 741
00262.M2TS 4621 (0x120D) 0x90 PGS srp (Serbian) 5548,501 16 11 161 518 64 789
00262.M2TS 4622 (0x120E) 0x90 PGS slk (Slovak) 5548,501 16 11 330 268 65 818
00262.M2TS 4623 (0x120F) 0x90 PGS slv (Slovenian) 5548,501 15 10 386 869 60 695
00262.M2TS 4624 (0x1210) 0x90 PGS tur (Turkish) 5548,501 16 10 955 244 63 766
00262.M2TS 4625 (0x1211) 0x90 PGS eng (English) 5548,501 67 46 621 888 265 362
00262.M2TS 4626 (0x1212) 0x90 PGS ell (Greek) 5548,501 54 37 711 448 216 932
00262.M2TS 4627 (0x1213) 0x90 PGS ron (Romanian) 5548,501 54 37 282 873 214 569
00262.M2TS 4628 (0x1214) 0x90 PGS eng (English) 5548,501 54 37 141 683 209 409
00262.M2TS 4629 (0x1215) 0x90 PGS ron (Romanian) 5548,501 45 31 359 751 179 052
00262.M2TS 6656 (0x1A00) 0xA2 DTS Express eng (English) 5548,501 192 133 167 104 780 276
00262.M2TS 6912 (0x1B00) 0x1B AVC 5548,501 4 555 3 159 298 650 17 257 768
<---- END FORUMS PASTE ---->
QUICK SUMMARY:
Disc Title: Другой мир Восстание ликанов Underworld Rise of the Lycans [BD disk] (2009)
Disc Size: 43 174 641 672 bytes
Protection: AACS
BD-Java: Yes
Playlist: 00715.MPLS
Size: 29 637 580 800 bytes
Length: 1:32:28
Total Bitrate: 42,73 Mbps
Video: MPEG-4 AVC Video / 23737 kbps / 1080p / 23,976 fps / 16:9 / High Profile 4.1
Video: MPEG-4 AVC Video / 4555 kbps / 480p / 23,976 fps / 16:9 / High Profile 3.2
Audio: English / Dolby TrueHD Audio / 5.1 / 48 kHz / 3729 kbps / 24-bit (AC3 Embedded: 5.1 / 48 kHz / 640 kbps / DN -4dB)
Audio: Russian / Dolby TrueHD Audio / 5.1 / 48 kHz / 1743 kbps / 16-bit (AC3 Embedded: 5.1 / 48 kHz / 640 kbps / DN -4dB)
Audio: Czech / Dolby Digital Audio / 5.1 / 48 kHz / 640 kbps / DN -4dB
Audio: Hungarian / Dolby Digital Audio / 5.1 / 48 kHz / 640 kbps / DN -4dB
Audio: Polish / Dolby Digital Audio / 5.1 / 48 kHz / 640 kbps / DN -4dB
Audio: Ukrainian / Dolby Digital Audio / 5.1 / 48 kHz / 640 kbps / DN -4dB
Audio: English / Dolby Digital Audio / 2.0 / 48 kHz / 192 kbps / DN -4dB / Dolby Surround
Audio: English / DTS Express / 2.0 / 48 kHz / 192 kbps / 16-bit
* Subtitle: English / 17,059 kbps
* Subtitle: English / 67,220 kbps
Subtitle: English / 53,551 kbps
* Subtitle: Arabic / 8,614 kbps
* Subtitle: Bulgarian / 15,364 kbps
* Subtitle: Croatian / 15,300 kbps
* Subtitle: Czech / 13,878 kbps
* Subtitle: Estonian / 14,675 kbps
* Subtitle: Greek / 16,772 kbps
* Subtitle: Greek / 54,373 kbps
* Subtitle: Hebrew / 12,967 kbps
* Subtitle: Hungarian / 13,898 kbps
* Subtitle: Icelandic / 16,833 kbps
* Subtitle: Lithuanian / 16,789 kbps
* Subtitle: Polish / 15,632 kbps
* Subtitle: Romanian / 16,893 kbps
* Subtitle: Romanian / 53,755 kbps
Subtitle: Romanian / 45,215 kbps
* Subtitle: Serbian / 16,093 kbps
* Subtitle: Slovak / 16,336 kbps
* Subtitle: Slovenian / 14,976 kbps
* Subtitle: Turkish / 15,795 kbps
********************
PLAYLIST: 00720.MPLS
********************
<--- BEGIN FORUMS PASTE --->
Код:
Total Video
Title Codec Length Movie Size Disc Size Bitrate Bitrate Main Audio Track Secondary Audio Track
----- ------ ------- -------------- -------------- ------- ------- ------------------ ---------------------
00720.MPLS AVC 1:32:28 29 637 580 800 43 174 641 672 42,73 23,74 Dolby TrueHD 5.1 3729Kbps (48kHz/24-bit)
Код:
DISC INFO:
Disc Title: Другой мир Восстание ликанов Underworld Rise of the Lycans [BD disk] (2009)
Disc Size: 43 174 641 672 bytes
Protection: AACS
BD-Java: Yes
BDInfo: 0.5.4
PLAYLIST REPORT:
Name: 00720.MPLS
Length: 1:32:28 (h:m:s)
Size: 29 637 580 800 bytes
Total Bitrate: 42,73 Mbps
(*) Indicates included stream hidden by this playlist.
VIDEO:
Codec Bitrate Description
----- ------- -----------
MPEG-4 AVC Video 23737 kbps 1080p / 23,976 fps / 16:9 / High Profile 4.1
* MPEG-4 AVC Video 4555 kbps 480p / 23,976 fps / 16:9 / High Profile 3.2
AUDIO:
Codec Language Bitrate Description
----- -------- ------- -----------
Dolby TrueHD Audio English 3729 kbps 5.1 / 48 kHz / 3729 kbps / 24-bit (AC3 Embedded: 5.1 / 48 kHz / 640 kbps / DN -4dB)
Dolby TrueHD Audio Russian 1743 kbps 5.1 / 48 kHz / 1743 kbps / 16-bit (AC3 Embedded: 5.1 / 48 kHz / 640 kbps / DN -4dB)
Dolby Digital Audio Czech 640 kbps 5.1 / 48 kHz / 640 kbps / DN -4dB
Dolby Digital Audio Hungarian 640 kbps 5.1 / 48 kHz / 640 kbps / DN -4dB
Dolby Digital Audio Polish 640 kbps 5.1 / 48 kHz / 640 kbps / DN -4dB
Dolby Digital Audio Ukrainian 640 kbps 5.1 / 48 kHz / 640 kbps / DN -4dB
Dolby Digital Audio English 192 kbps 2.0 / 48 kHz / 192 kbps / DN -4dB / Dolby Surround
* DTS Express English 192 kbps 2.0 / 48 kHz / 192 kbps / 16-bit
SUBTITLES:
Codec Language Bitrate Description
----- -------- ------- -----------
Presentation Graphics English 17,059 kbps
Presentation Graphics English 67,220 kbps
* Presentation Graphics English 53,551 kbps
Presentation Graphics Arabic 8,614 kbps
Presentation Graphics Bulgarian 15,364 kbps
Presentation Graphics Croatian 15,300 kbps
Presentation Graphics Czech 13,878 kbps
Presentation Graphics Estonian 14,675 kbps
Presentation Graphics Greek 16,772 kbps
Presentation Graphics Greek 54,373 kbps
Presentation Graphics Hebrew 12,967 kbps
Presentation Graphics Hungarian 13,898 kbps
Presentation Graphics Icelandic 16,833 kbps
Presentation Graphics Lithuanian 16,789 kbps
Presentation Graphics Polish 15,632 kbps
Presentation Graphics Romanian 16,893 kbps
Presentation Graphics Romanian 53,755 kbps
* Presentation Graphics Romanian 45,215 kbps
Presentation Graphics Serbian 16,093 kbps
Presentation Graphics Slovak 16,336 kbps
Presentation Graphics Slovenian 14,976 kbps
Presentation Graphics Turkish 15,795 kbps
FILES:
Name Time In Length Size Total Bitrate
---- ------- ------ ---- -------------
00262.M2TS 0:00:00.000 1:32:28.584 29 637 580 800 42 732
CHAPTERS:
Number Time In Length Avg Video Rate Max 1-Sec Rate Max 1-Sec Time Max 5-Sec Rate Max 5-Sec Time Max 10Sec Rate Max 10Sec Time Avg Frame Size Max Frame Size Max Frame Time
------ ------- ------ -------------- -------------- -------------- -------------- -------------- -------------- -------------- -------------- -------------- --------------
1 0:00:00.000 0:06:19.879 22 147 kbps 35 004 kbps 00:06:03.988 27 064 kbps 00:06:09.452 26 204 kbps 00:06:04.447 115 453 bytes 384 232 bytes 00:00:53.094
2 0:06:19.879 0:05:22.905 25 352 kbps 32 930 kbps 00:08:33.137 26 985 kbps 00:08:29.133 26 243 kbps 00:08:24.212 132 175 bytes 363 035 bytes 00:08:33.846
3 0:11:42.785 0:05:01.843 23 554 kbps 37 115 kbps 00:13:48.160 27 118 kbps 00:16:11.053 26 291 kbps 00:14:17.940 122 801 bytes 494 311 bytes 00:13:48.869
4 0:16:44.628 0:07:48.426 25 109 kbps 31 499 kbps 00:23:20.649 26 247 kbps 00:23:03.173 25 870 kbps 00:23:11.640 130 906 bytes 386 344 bytes 00:20:45.953
5 0:24:33.054 0:05:55.438 25 382 kbps 30 476 kbps 00:25:40.163 26 494 kbps 00:25:36.243 25 978 kbps 00:25:31.238 132 328 bytes 319 547 bytes 00:30:28.493
6 0:30:28.493 0:06:04.655 25 302 kbps 34 572 kbps 00:31:28.386 27 287 kbps 00:31:24.382 26 357 kbps 00:31:19.377 131 915 bytes 701 423 bytes 00:31:29.345
7 0:36:33.149 0:03:44.265 25 190 kbps 32 748 kbps 00:38:41.527 26 828 kbps 00:38:37.523 26 267 kbps 00:38:32.518 131 331 bytes 581 883 bytes 00:38:42.361
8 0:40:17.415 0:06:11.454 24 992 kbps 35 327 kbps 00:43:02.913 27 507 kbps 00:42:58.909 26 467 kbps 00:42:53.904 130 295 bytes 596 268 bytes 00:45:37.568
9 0:46:28.869 0:04:25.723 25 296 kbps 30 011 kbps 00:47:01.109 26 296 kbps 00:46:57.064 25 700 kbps 00:46:52.100 131 883 bytes 344 292 bytes 00:50:18.181
10 0:50:54.593 0:04:13.628 25 320 kbps 27 983 kbps 00:54:18.505 25 827 kbps 00:51:00.557 25 621 kbps 00:54:53.206 132 005 bytes 284 655 bytes 00:51:05.187
11 0:55:08.221 0:05:31.080 25 197 kbps 31 609 kbps 00:57:27.193 26 610 kbps 00:57:55.763 25 785 kbps 00:57:18.101 131 367 bytes 431 704 bytes 00:57:27.986
12 1:00:39.302 0:06:33.976 24 771 kbps 33 332 kbps 01:03:06.824 26 648 kbps 01:03:06.532 25 794 kbps 01:01:27.100 129 146 bytes 506 304 bytes 01:02:48.181
13 1:07:13.279 0:06:16.042 25 066 kbps 32 042 kbps 01:07:54.528 27 004 kbps 01:07:50.524 26 167 kbps 01:07:45.519 130 682 bytes 347 284 bytes 01:12:15.956
14 1:13:29.321 0:03:09.522 24 835 kbps 30 939 kbps 01:13:35.702 26 606 kbps 01:13:31.657 25 612 kbps 01:14:24.543 129 481 bytes 320 922 bytes 01:13:51.260
15 1:16:38.844 0:05:54.312 24 882 kbps 32 338 kbps 01:19:29.222 26 463 kbps 01:17:20.510 25 874 kbps 01:20:30.200 129 722 bytes 344 357 bytes 01:17:25.307
16 1:22:33.156 0:09:55.428 14 884 kbps 36 994 kbps 01:23:03.061 27 460 kbps 01:22:59.057 26 375 kbps 01:22:54.052 77 605 bytes 723 730 bytes 01:23:04.062
STREAM DIAGNOSTICS:
File PID Type Codec Language Seconds Bitrate Bytes Packets
---- --- ---- ----- -------- -------------- -------------- ------------- -----
00262.M2TS 4113 (0x1011) 0x1B AVC 5548,501 23 738 16 463 524 865 89 554 630
00262.M2TS 4352 (0x1100) 0x83 TrueHD eng (English) 5548,501 4 369 3 030 059 512 20 385 883
00262.M2TS 4353 (0x1101) 0x81 AC3 ces (Czech) 5548,501 640 443 888 640 2 600 910
00262.M2TS 4354 (0x1102) 0x81 AC3 hun (Hungarian) 5548,501 640 443 888 640 2 600 910
00262.M2TS 4355 (0x1103) 0x81 AC3 pol (Polish) 5548,501 640 443 888 640 2 600 910
00262.M2TS 4356 (0x1104) 0x83 TrueHD rus (Russian) 5548,501 2 383 1 652 865 528 12 743 344
00262.M2TS 4357 (0x1105) 0x81 AC3 ukr (Ukrainian) 5548,501 640 443 888 640 2 600 910
00262.M2TS 4358 (0x1106) 0x81 AC3 eng (English) 5548,501 192 133 166 592 866 970
00262.M2TS 4608 (0x1200) 0x90 PGS eng (English) 5548,501 17 11 831 344 68 550
00262.M2TS 4609 (0x1201) 0x90 PGS ces (Czech) 5548,501 14 9 625 717 56 375
00262.M2TS 4610 (0x1202) 0x90 PGS hun (Hungarian) 5548,501 14 9 639 334 56 259
00262.M2TS 4611 (0x1203) 0x90 PGS pol (Polish) 5548,501 16 10 842 050 63 014
00262.M2TS 4612 (0x1204) 0x90 PGS ara (Arabic) 5548,501 9 5 974 467 36 450
00262.M2TS 4613 (0x1205) 0x90 PGS bul (Bulgarian) 5548,501 15 10 656 213 61 347
00262.M2TS 4614 (0x1206) 0x90 PGS hrv (Croatian) 5548,501 15 10 611 987 61 930
00262.M2TS 4615 (0x1207) 0x90 PGS est (Estonian) 5548,501 15 10 177 981 58 070
00262.M2TS 4616 (0x1208) 0x90 PGS ell (Greek) 5548,501 17 11 632 306 67 223
00262.M2TS 4617 (0x1209) 0x90 PGS heb (Hebrew) 5548,501 13 8 993 856 52 933
00262.M2TS 4618 (0x120A) 0x90 PGS isl (Icelandic) 5548,501 17 11 674 909 67 213
00262.M2TS 4619 (0x120B) 0x90 PGS lit (Lithuanian) 5548,501 17 11 644 686 67 442
00262.M2TS 4620 (0x120C) 0x90 PGS ron (Romanian) 5548,501 17 11 716 447 67 741
00262.M2TS 4621 (0x120D) 0x90 PGS srp (Serbian) 5548,501 16 11 161 518 64 789
00262.M2TS 4622 (0x120E) 0x90 PGS slk (Slovak) 5548,501 16 11 330 268 65 818
00262.M2TS 4623 (0x120F) 0x90 PGS slv (Slovenian) 5548,501 15 10 386 869 60 695
00262.M2TS 4624 (0x1210) 0x90 PGS tur (Turkish) 5548,501 16 10 955 244 63 766
00262.M2TS 4625 (0x1211) 0x90 PGS eng (English) 5548,501 67 46 621 888 265 362
00262.M2TS 4626 (0x1212) 0x90 PGS ell (Greek) 5548,501 54 37 711 448 216 932
00262.M2TS 4627 (0x1213) 0x90 PGS ron (Romanian) 5548,501 54 37 282 873 214 569
00262.M2TS 4628 (0x1214) 0x90 PGS eng (English) 5548,501 54 37 141 683 209 409
00262.M2TS 4629 (0x1215) 0x90 PGS ron (Romanian) 5548,501 45 31 359 751 179 052
00262.M2TS 6656 (0x1A00) 0xA2 DTS Express eng (English) 5548,501 192 133 167 104 780 276
00262.M2TS 6912 (0x1B00) 0x1B AVC 5548,501 4 555 3 159 298 650 17 257 768
<---- END FORUMS PASTE ---->
QUICK SUMMARY:
Disc Title: Другой мир Восстание ликанов Underworld Rise of the Lycans [BD disk] (2009)
Disc Size: 43 174 641 672 bytes
Protection: AACS
BD-Java: Yes
Playlist: 00720.MPLS
Size: 29 637 580 800 bytes
Length: 1:32:28
Total Bitrate: 42,73 Mbps
Video: MPEG-4 AVC Video / 23737 kbps / 1080p / 23,976 fps / 16:9 / High Profile 4.1
* Video: MPEG-4 AVC Video / 4555 kbps / 480p / 23,976 fps / 16:9 / High Profile 3.2
Audio: English / Dolby TrueHD Audio / 5.1 / 48 kHz / 3729 kbps / 24-bit (AC3 Embedded: 5.1 / 48 kHz / 640 kbps / DN -4dB)
Audio: Russian / Dolby TrueHD Audio / 5.1 / 48 kHz / 1743 kbps / 16-bit (AC3 Embedded: 5.1 / 48 kHz / 640 kbps / DN -4dB)
Audio: Czech / Dolby Digital Audio / 5.1 / 48 kHz / 640 kbps / DN -4dB
Audio: Hungarian / Dolby Digital Audio / 5.1 / 48 kHz / 640 kbps / DN -4dB
Audio: Polish / Dolby Digital Audio / 5.1 / 48 kHz / 640 kbps / DN -4dB
Audio: Ukrainian / Dolby Digital Audio / 5.1 / 48 kHz / 640 kbps / DN -4dB
Audio: English / Dolby Digital Audio / 2.0 / 48 kHz / 192 kbps / DN -4dB / Dolby Surround
* Audio: English / DTS Express / 2.0 / 48 kHz / 192 kbps / 16-bit
Subtitle: English / 17,059 kbps
Subtitle: English / 67,220 kbps
* Subtitle: English / 53,551 kbps
Subtitle: Arabic / 8,614 kbps
Subtitle: Bulgarian / 15,364 kbps
Subtitle: Croatian / 15,300 kbps
Subtitle: Czech / 13,878 kbps
Subtitle: Estonian / 14,675 kbps
Subtitle: Greek / 16,772 kbps
Subtitle: Greek / 54,373 kbps
Subtitle: Hebrew / 12,967 kbps
Subtitle: Hungarian / 13,898 kbps
Subtitle: Icelandic / 16,833 kbps
Subtitle: Lithuanian / 16,789 kbps
Subtitle: Polish / 15,632 kbps
Subtitle: Romanian / 16,893 kbps
Subtitle: Romanian / 53,755 kbps
* Subtitle: Romanian / 45,215 kbps
Subtitle: Serbian / 16,093 kbps
Subtitle: Slovak / 16,336 kbps
Subtitle: Slovenian / 14,976 kbps
Subtitle: Turkish / 15,795 kbps
********************
PLAYLIST: 01715.MPLS
********************
<--- BEGIN FORUMS PASTE --->
Код:
Total Video
Title Codec Length Movie Size Disc Size Bitrate Bitrate Main Audio Track Secondary Audio Track
----- ------ ------- -------------- -------------- ------- ------- ------------------ ---------------------
01715.MPLS AVC 1:32:28 29 637 580 800 43 174 641 672 42,73 23,74 Dolby TrueHD 5.1 3729Kbps (48kHz/24-bit)
Код:
DISC INFO:
Disc Title: Другой мир Восстание ликанов Underworld Rise of the Lycans [BD disk] (2009)
Disc Size: 43 174 641 672 bytes
Protection: AACS
BD-Java: Yes
BDInfo: 0.5.4
PLAYLIST REPORT:
Name: 01715.MPLS
Length: 1:32:28 (h:m:s)
Size: 29 637 580 800 bytes
Total Bitrate: 42,73 Mbps
VIDEO:
Codec Bitrate Description
----- ------- -----------
MPEG-4 AVC Video 23737 kbps 1080p / 23,976 fps / 16:9 / High Profile 4.1
MPEG-4 AVC Video 4555 kbps 480p / 23,976 fps / 16:9 / High Profile 3.2
AUDIO:
Codec Language Bitrate Description
----- -------- ------- -----------
Dolby TrueHD Audio English 3729 kbps 5.1 / 48 kHz / 3729 kbps / 24-bit (AC3 Embedded: 5.1 / 48 kHz / 640 kbps / DN -4dB)
Dolby TrueHD Audio Russian 1743 kbps 5.1 / 48 kHz / 1743 kbps / 16-bit (AC3 Embedded: 5.1 / 48 kHz / 640 kbps / DN -4dB)
Dolby Digital Audio Czech 640 kbps 5.1 / 48 kHz / 640 kbps / DN -4dB
Dolby Digital Audio Hungarian 640 kbps 5.1 / 48 kHz / 640 kbps / DN -4dB
Dolby Digital Audio Polish 640 kbps 5.1 / 48 kHz / 640 kbps / DN -4dB
Dolby Digital Audio Ukrainian 640 kbps 5.1 / 48 kHz / 640 kbps / DN -4dB
Dolby Digital Audio English 192 kbps 2.0 / 48 kHz / 192 kbps / DN -4dB / Dolby Surround
DTS Express English 192 kbps 2.0 / 48 kHz / 192 kbps / 16-bit
SUBTITLES:
Codec Language Bitrate Description
----- -------- ------- -----------
Presentation Graphics English 17,059 kbps
Presentation Graphics English 67,220 kbps
Presentation Graphics English 53,551 kbps
Presentation Graphics Arabic 8,614 kbps
Presentation Graphics Bulgarian 15,364 kbps
Presentation Graphics Croatian 15,300 kbps
Presentation Graphics Czech 13,878 kbps
Presentation Graphics Estonian 14,675 kbps
Presentation Graphics Greek 16,772 kbps
Presentation Graphics Greek 54,373 kbps
Presentation Graphics Hebrew 12,967 kbps
Presentation Graphics Hungarian 13,898 kbps
Presentation Graphics Icelandic 16,833 kbps
Presentation Graphics Lithuanian 16,789 kbps
Presentation Graphics Polish 15,632 kbps
Presentation Graphics Romanian 16,893 kbps
Presentation Graphics Romanian 53,755 kbps
Presentation Graphics Romanian 45,215 kbps
Presentation Graphics Serbian 16,093 kbps
Presentation Graphics Slovak 16,336 kbps
Presentation Graphics Slovenian 14,976 kbps
Presentation Graphics Turkish 15,795 kbps
FILES:
Name Time In Length Size Total Bitrate
---- ------- ------ ---- -------------
00262.M2TS 0:00:00.000 1:32:28.584 29 637 580 800 42 732
CHAPTERS:
Number Time In Length Avg Video Rate Max 1-Sec Rate Max 1-Sec Time Max 5-Sec Rate Max 5-Sec Time Max 10Sec Rate Max 10Sec Time Avg Frame Size Max Frame Size Max Frame Time
------ ------- ------ -------------- -------------- -------------- -------------- -------------- -------------- -------------- -------------- -------------- --------------
1 0:00:00.000 0:00:57.057 11 444 kbps 33 852 kbps 00:00:52.510 26 746 kbps 00:00:48.506 22 433 kbps 00:00:02.210 59 620 bytes 384 232 bytes 00:00:53.094
2 0:00:57.057 0:05:22.572 24 038 kbps 35 004 kbps 00:06:03.988 27 064 kbps 00:06:09.452 26 204 kbps 00:06:04.447 125 321 bytes 372 096 bytes 00:04:37.485
3 0:06:19.629 0:00:00.250 25 864 kbps 0 kbps 00:00:00.000 0 kbps 00:00:00.000 0 kbps 00:00:00.000 134 840 bytes 181 842 bytes 00:06:19.879
4 0:06:19.879 0:05:22.905 25 352 kbps 32 930 kbps 00:08:33.137 26 985 kbps 00:08:29.133 26 243 kbps 00:08:24.212 132 175 bytes 363 035 bytes 00:08:33.846
5 0:11:42.785 0:04:27.183 23 584 kbps 37 115 kbps 00:13:48.160 27 036 kbps 00:14:22.945 26 291 kbps 00:14:17.940 122 954 bytes 494 311 bytes 00:13:48.869
6 0:16:09.969 0:00:34.659 23 327 kbps 32 804 kbps 00:16:14.181 27 118 kbps 00:16:11.053 25 597 kbps 00:16:32.032 121 618 bytes 405 686 bytes 00:16:15.766
7 0:16:44.628 0:02:59.888 25 292 kbps 28 815 kbps 00:19:13.944 26 205 kbps 00:19:10.023 25 797 kbps 00:19:04.977 131 860 bytes 269 045 bytes 00:17:35.054
8 0:19:44.516 0:02:59.554 24 956 kbps 29 998 kbps 00:21:06.932 26 052 kbps 00:22:20.255 25 679 kbps 00:21:15.315 130 109 bytes 386 344 bytes 00:20:45.953
9 0:22:44.071 0:01:48.983 25 059 kbps 31 499 kbps 00:23:20.649 26 247 kbps 00:23:03.173 25 870 kbps 00:23:11.640 130 646 bytes 368 543 bytes 00:23:21.483
10 0:24:33.054 0:03:09.898 25 297 kbps 30 476 kbps 00:25:40.163 26 494 kbps 00:25:36.243 25 978 kbps 00:25:31.238 131 887 bytes 269 122 bytes 00:25:40.872
11 0:27:42.952 0:01:08.443 25 461 kbps 28 628 kbps 00:27:54.881 26 055 kbps 00:27:50.877 25 784 kbps 00:27:45.830 132 742 bytes 228 065 bytes 00:27:55.590
12 0:28:51.396 0:01:37.096 25 491 kbps 26 919 kbps 00:30:27.492 25 754 kbps 00:30:23.488 25 622 kbps 00:29:20.383 132 900 bytes 319 547 bytes 00:30:28.493
13 0:30:28.493 0:01:06.691 25 304 kbps 34 572 kbps 00:31:28.386 27 287 kbps 00:31:24.382 26 357 kbps 00:31:19.377 131 922 bytes 701 423 bytes 00:31:29.345
14 0:31:35.184 0:04:13.586 25 289 kbps 29 127 kbps 00:33:29.340 26 141 kbps 00:33:25.336 25 761 kbps 00:33:20.331 131 846 bytes 262 580 bytes 00:33:30.091
15 0:35:48.771 0:00:44.377 25 376 kbps 26 656 kbps 00:35:59.490 25 630 kbps 00:36:07.748 25 541 kbps 00:36:18.968 132 299 bytes 237 255 bytes 00:36:33.149
16 0:36:33.149 0:02:38.283 25 116 kbps 32 748 kbps 00:38:41.527 26 828 kbps 00:38:37.523 26 267 kbps 00:38:32.518 130 942 bytes 581 883 bytes 00:38:42.361
17 0:39:11.432 0:01:05.982 25 369 kbps 28 515 kbps 00:40:16.205 26 079 kbps 00:40:12.201 25 529 kbps 00:39:27.114 132 265 bytes 256 998 bytes 00:40:16.872
18 0:40:17.415 0:01:30.590 25 085 kbps 28 338 kbps 00:41:34.158 25 712 kbps 00:41:01.459 25 617 kbps 00:40:45.985 130 783 bytes 223 810 bytes 00:41:11.093
19 0:41:48.005 0:04:40.863 24 961 kbps 35 327 kbps 00:43:02.913 27 507 kbps 00:42:58.909 26 467 kbps 00:42:53.904 130 137 bytes 596 268 bytes 00:45:37.568
20 0:46:28.869 0:00:03.461 24 400 kbps 26 204 kbps 00:46:29.369 0 kbps 00:00:00.000 0 kbps 00:00:00.000 127 213 bytes 178 696 bytes 00:46:29.870
21 0:46:32.331 0:04:18.341 25 307 kbps 30 011 kbps 00:47:01.109 26 296 kbps 00:46:57.064 25 700 kbps 00:46:52.100 131 941 bytes 344 292 bytes 00:50:18.181
22 0:50:50.672 0:00:03.920 25 355 kbps 26 348 kbps 00:50:51.965 0 kbps 00:00:00.000 0 kbps 00:00:00.000 132 187 bytes 220 635 bytes 00:50:52.007
23 0:50:54.593 0:01:40.892 25 344 kbps 27 225 kbps 00:52:34.401 25 827 kbps 00:51:00.557 25 608 kbps 00:52:25.392 132 131 bytes 284 655 bytes 00:51:05.187
24 0:52:35.485 0:02:32.735 25 304 kbps 27 983 kbps 00:54:18.505 25 768 kbps 00:54:58.211 25 621 kbps 00:54:53.206 131 922 bytes 274 070 bytes 00:54:13.833
25 0:55:08.221 0:01:07.776 25 350 kbps 26 702 kbps 00:55:14.019 25 672 kbps 00:55:21.818 25 582 kbps 00:56:03.360 132 161 bytes 253 424 bytes 00:55:10.223
26 0:56:15.997 0:04:23.304 25 158 kbps 31 609 kbps 00:57:27.193 26 610 kbps 00:57:55.763 25 785 kbps 00:57:18.101 131 163 bytes 431 704 bytes 00:57:27.986
27 1:00:39.302 0:00:13.388 24 776 kbps 26 997 kbps 01:00:49.812 25 247 kbps 01:00:45.808 24 916 kbps 01:00:40.762 129 170 bytes 231 221 bytes 01:00:40.803
28 1:00:52.690 0:03:34.881 24 551 kbps 33 332 kbps 01:03:06.824 26 648 kbps 01:03:06.532 25 794 kbps 01:01:27.100 128 000 bytes 506 304 bytes 01:02:48.181
29 1:04:27.572 0:02:45.707 25 056 kbps 28 785 kbps 01:05:03.232 26 045 kbps 01:05:51.113 25 780 kbps 01:04:54.181 130 629 bytes 347 331 bytes 01:05:56.452
30 1:07:13.279 0:04:08.665 25 084 kbps 32 042 kbps 01:07:54.528 27 004 kbps 01:07:50.524 26 167 kbps 01:07:45.519 130 779 bytes 283 018 bytes 01:07:55.321
31 1:11:21.944 0:02:07.377 25 030 kbps 31 909 kbps 01:12:15.205 26 068 kbps 01:12:11.201 25 554 kbps 01:12:38.270 130 494 bytes 347 284 bytes 01:12:15.956
32 1:13:29.321 0:02:56.092 24 845 kbps 30 939 kbps 01:13:35.702 26 606 kbps 01:13:31.657 25 612 kbps 01:14:24.543 129 528 bytes 320 922 bytes 01:13:51.260
33 1:16:25.414 0:00:13.430 24 717 kbps 29 380 kbps 01:16:28.417 25 577 kbps 01:16:32.879 24 677 kbps 01:16:28.250 128 861 bytes 296 864 bytes 01:16:33.672
34 1:16:38.844 0:01:31.549 24 807 kbps 31 756 kbps 01:17:31.104 26 463 kbps 01:17:20.510 25 745 kbps 01:17:22.095 129 333 bytes 344 357 bytes 01:17:25.307
35 1:18:10.394 0:04:22.762 24 908 kbps 32 338 kbps 01:19:29.222 26 287 kbps 01:20:35.205 25 874 kbps 01:20:30.200 129 858 bytes 340 608 bytes 01:19:19.337
36 1:22:33.156 0:09:55.428 14 884 kbps 36 994 kbps 01:23:03.061 27 460 kbps 01:22:59.057 26 375 kbps 01:22:54.052 77 605 bytes 723 730 bytes 01:23:04.062
STREAM DIAGNOSTICS:
File PID Type Codec Language Seconds Bitrate Bytes Packets
---- --- ---- ----- -------- -------------- -------------- ------------- -----
00262.M2TS 4113 (0x1011) 0x1B AVC 5548,501 23 738 16 463 524 865 89 554 630
00262.M2TS 4352 (0x1100) 0x83 TrueHD eng (English) 5548,501 4 369 3 030 059 512 20 385 883
00262.M2TS 4353 (0x1101) 0x81 AC3 ces (Czech) 5548,501 640 443 888 640 2 600 910
00262.M2TS 4354 (0x1102) 0x81 AC3 hun (Hungarian) 5548,501 640 443 888 640 2 600 910
00262.M2TS 4355 (0x1103) 0x81 AC3 pol (Polish) 5548,501 640 443 888 640 2 600 910
00262.M2TS 4356 (0x1104) 0x83 TrueHD rus (Russian) 5548,501 2 383 1 652 865 528 12 743 344
00262.M2TS 4357 (0x1105) 0x81 AC3 ukr (Ukrainian) 5548,501 640 443 888 640 2 600 910
00262.M2TS 4358 (0x1106) 0x81 AC3 eng (English) 5548,501 192 133 166 592 866 970
00262.M2TS 4608 (0x1200) 0x90 PGS eng (English) 5548,501 17 11 831 344 68 550
00262.M2TS 4609 (0x1201) 0x90 PGS ces (Czech) 5548,501 14 9 625 717 56 375
00262.M2TS 4610 (0x1202) 0x90 PGS hun (Hungarian) 5548,501 14 9 639 334 56 259
00262.M2TS 4611 (0x1203) 0x90 PGS pol (Polish) 5548,501 16 10 842 050 63 014
00262.M2TS 4612 (0x1204) 0x90 PGS ara (Arabic)

_________________

[Торрент-статистика]
[Профиль]  [ЛС] 
Показать сообщения:    
Ответить на тему

Текущее время: Сегодня 16:59

Часовой пояс: GMT + 4



Вы не можете начинать темы
Вы не можете отвечать на сообщения
Вы не можете редактировать свои сообщения
Вы не можете удалять свои сообщения
Вы не можете голосовать в опросах
Вы не можете прикреплять файлы к сообщениям
Вы не можете скачивать файлы