Дети шпионов 4D / Spy Kids: All the Time in the World in 4D (Роберт Родригес) [2011 г., фантастика,боевик,комедия,приключения, BDRip]

Ответить на тему
 
Автор
Сообщение

duke67 ®

Пол:

Стаж: 5 лет 10 месяцев

Сообщений: 1

Репутация: 0 [+] [-]

Пост 07-Ноя-2011 23:35

[Цитировать] 

Дети шпионов 4D / Spy Kids: All the Time in the World in 4D
Год выпуска: 2011
Страна: США
Жанр: фантастика,боевик,комедия,приключения
Продолжительность: 01:27:45
Перевод: Профессиональный (полное дублирование)
Режиссер: Роберт Родригес
В ролях: Джессика Альба, Дэнни Трехо, Джоэль МакХэйл, Алекса Вега, Дэрил Сабара, Роуэн Бланчард, Мэйсон Кук, Джереми Пивен, Белль Солорзано, Дженни Солорзано
Описание: Брат и сестра поневоле должны стать крутыми шпионами, чтобы помешать мечтающему о мировом господстве злодею, и выручить из беды собственных родителей, удалившихся на покой секретных суперагентов.
Качество: BDRip
Формат: MKV
Видео: 5593 kb/s, 1280x720, 16:9 23.976 fps
Аудио: Russian: AC3, 384 kb/s (6 ch) / English: DTS, 1510 kb/s (6 ch)
Cубтитры: английские
Размер: 4.59 GB

MediaInfo

General
Complete name : Deti.shpionov.2011.D.BDRip.720p.ELEKTRI4KA.mkv
Format : Matroska
File size : 4.59 GiB
Duration : 1h 27mn
Overall bit rate : 7 490 Kbps
Movie name : ELEKTRI4KA
Encoded date : UTC 2011-11-05 13:13:15
Writing application : mkvmerge v3.4.0 ('Rapunzel') сборка от May 15 2010 09:38:20
Writing library : libebml v0.8.0 + libmatroska v0.9.0
Video
ID : 1
Format : AVC
Format/Info : Advanced Video Codec
Format profile : High@L4.1
Format settings, CABAC : Yes
Format settings, ReFrames : 8 frames
Codec ID : V_MPEG4/ISO/AVC
Duration : 1h 27mn
Bit rate : 5 593 Kbps
Width : 1 280 pixels
Height : 720 pixels
Display aspect ratio : 16:9
Frame rate : 23.976 fps
Color space : YUV
Chroma subsampling : 4:2:0
Bit depth : 8 bits
Scan type : Progressive
Bits/(Pixel*Frame) : 0.253
Stream size : 3.34 GiB (73%)
Title : Spy.Kids.All.the.Time.in.the.World.2011.BluRay.720p.DTS.x264-CHD
Writing library : x264 core 116 r2074 2641b9e
Encoding settings : cabac=1 / ref=8 / deblock=1:-3:-3 / analyse=0x3:0x113 / me=umh / subme=10 / psy=1 / psy_rd=1.00:0.05 / mixed_ref=1 / me_range=32 / chroma_me=1 / trellis=2 / 8x8dct=1 / cqm=2 / deadzone=21,11 / fast_pskip=0 / chroma_qp_offset=-2 / threads=8 / sliced_threads=0 / nr=0 / decimate=1 / interlaced=0 / bluray_compat=0 / constrained_intra=0 / bframes=6 / b_pyramid=2 / b_adapt=2 / b_bias=0 / direct=3 / weightb=1 / open_gop=0 / weightp=2 / keyint=250 / keyint_min=23 / scenecut=40 / intra_refresh=0 / rc_lookahead=40 / rc=2pass / mbtree=0 / bitrate=5593 / ratetol=1.0 / qcomp=0.70 / qpmin=1 / qpmax=63 / qpstep=4 / cplxblur=20.0 / qblur=0.5 / vbv_maxrate=40000 / vbv_bufsize=40000 / nal_hrd=none / ip_ratio=1.40 / pb_ratio=1.30 / aq=2:0.90
Language : English
Audio #1
ID : 2
Format : AC-3
Format/Info : Audio Coding 3
Mode extension : CM (complete main)
Codec ID : A_AC3
Duration : 1h 27mn
Bit rate mode : Constant
Bit rate : 384 Kbps
Channel(s) : 6 channels
Channel positions : Front: L C R, Side: L R, LFE
Sampling rate : 48.0 KHz
Bit depth : 16 bits
Stream size : 241 MiB (5%)
Title : DUB R5
Language : Russian
Audio #2
ID : 3
Format : DTS
Format/Info : Digital Theater Systems
Codec ID : A_DTS
Duration : 1h 27mn
Bit rate mode : Constant
Bit rate : 1 510 Kbps
Channel(s) : 6 channels
Channel positions : Front: L C R, Side: L R, LFE
Sampling rate : 48.0 KHz
Bit depth : 24 bits
Stream size : 948 MiB (20%)
Title : Original
Language : English
Text
ID : 4
Format : UTF-8
Codec ID : S_TEXT/UTF8
Codec ID/Info : UTF-8 Plain Text
Title : English
Language : English

Скриншоты





Последний раз редактировалось: duke67 (2011-11-08 00:33), всего редактировалось 2 раз(а)
[Торрент-статистика]
[Профиль]  [ЛС] 
Показать сообщения:    
Ответить на тему

Текущее время: Сегодня 16:06

Часовой пояс: GMT + 4



Вы не можете начинать темы
Вы не можете отвечать на сообщения
Вы не можете редактировать свои сообщения
Вы не можете удалять свои сообщения
Вы не можете голосовать в опросах
Вы не можете прикреплять файлы к сообщениям
Вы не можете скачивать файлы