Охотники за головами / Headhunters / Hodejegerne (Мортен Тильдум / Morten Tyldum) [2011, боевик, триллер, криминал, BDRip 1080p] DUB R5 + Subs (nor, eng) + Original Nor

Ответить на тему
 
Автор
Сообщение

Волк ®

Пол:

Стаж: 5 лет 8 месяцев

Сообщений: 691

Репутация: 292 [+] [-]

Откуда: Армения

Пост 20-Фев-2012 12:49

[Цитировать] 

Охотники за головами / Hodejegerne-
Год выпуска: 2011
Страна:
Германия, Норвегия-Жанр: боевик, триллер, криминал
Продолжительность: 01:40:06
Перевод: Профессиональный (полное дублирование)
Cубтитры: норвежские, английские
Оригинальная аудиодорожка: норвежский-Режиссер: Мортен Тильдум / Morten Tyldum
Сценарий: Ларс Гудместад / Lars Gudmestad, Ульф Рюберг / Ulf Ryberg, Ю Несбё / Jo Nesbø
Продюсер: Марианн Грэй / Marianne Gray, Asle Vatn, Анни Форби Фернандез / Anni Faurbye Fernandez, Лоне Корслунд / Lone Korslund, Кристиан Фредерик Мартин / Christian Fredrik Martin
Оператор: Джон Андреас Андерсен / John Andreas Andersen-В ролях: Аксель Хенни (Roger Brown), Николай Костер-Вальдау (Clas Greve), Синневе Макоди Лунд (Diana Brown), Юлье Ольгорд (Lotte), Карре Хаген Сиднесс (Jeremias Lander), Рейдар Серенсен (Brede Sperre), Нильс Йорген Каалстад (Stig), Йоахим Рафаелсен (Brugd), Gunnar Skramstad Johnsen (Monsen 1), Lars Skramstad Johnsen (Monsen 2), Signe Tynning (Morning Show Hostess), Бор Ове (Sindre Aa)
Дублёры: Михаил Тихонов (Roger Brown), Павел Кипнис (Clas Greve), Ольга Голованова (Lotte)-Описание: Роджер Браун - блестящий «охотник за головами», незаменимый специалист по подбору топ-менеджеров для крупнейших фирм. Он может найти нужного человека на любую должность и его рекомендация - залог получения работы. Чтобы удержать красавицу жену, открывшую на деньги мужа картинную галерею в модном районе, Роджер давно уже живет не по средствам, и, пользуясь своим служебным положением, крадет дорогие картины у претендентов на руководящие должности.
Однажды Роджер встречает голландца Класа Граафа: идеального кандидата для фирмы специализирующейся на навигационном оборудовании и - вот удача! - владельца картины Рубенса, считавшейся утерянной во время Второй Мировой войны. Кража и последующая продажа шедевра может помочь Роджеру навсегда решить все финансовые проблемы.
Но, внезапно, «охотник за головами» сам превращается в добычу.-Бюджет: NOK 30 300 000
Сборы в России: $147 931
Мировая премьера: 4 августа 2011-
MPAA: - Лицам до 17 лет обязательно присутствие взрослого-Качество: BDRip 1080p (HDChina) | Сэмпл
Формат: MKV
Видео: AVC; 1920x800 (2.35:1); ~12563 Kbps; 24 fps; 0,341 bpp
Аудио №1: Russian / AC3 / 5.1 / 48 kHz / 448 kbps | Полное дублирование (R5) |
Аудио №2: Norwegian / DTS / 5.1 / 48 kHz / 1536 kbps / 24-bit
Субтитры №1: Norwegian
Субтитры №2: English-

Знаете ли Вы, что...

Фильм основан на книге Ю Несбе «Охотники за головами».

MediaInfo

Код:
General
Unique ID : 204719746703857047776575369462809114901 (0x9A0396CB3905241C8617C49734D83915)
Complete name : Hodejegerne.2011.BluRay.1080p.x264.DTS-HDChina.Rus.Eng.mkv
Format : Matroska
Format version : Version 2
File size : 10.2 GiB
Duration : 1h 40mn
Overall bit rate : 14.5 Mbps
Encoded date : UTC 2012-02-05 20:41:35
Writing application : mkvmerge v5.2.1 ('A Far Off Place') built on Jan 2 2012 23:21:10
Writing library : libebml v1.2.3 + libmatroska v1.3.0
Video
ID : 1
Format : AVC
Format/Info : Advanced Video Codec
Format profile : High@L4.1
Format settings, CABAC : Yes
Format settings, ReFrames : 5 frames
Codec ID : V_MPEG4/ISO/AVC
Duration : 1h 40mn
Bit rate : 12.6 Mbps
Width : 1 920 pixels
Height : 800 pixels
Display aspect ratio : 2.40:1
Frame rate : 24.000 fps
Color space : YUV
Chroma subsampling : 4:2:0
Bit depth : 8 bits
Scan type : Progressive
Bits/(Pixel*Frame) : 0.341
Stream size : 8.58 GiB (85%)
Writing library : x264 core 116 r2074 2641b9e
Encoding settings : cabac=1 / ref=5 / deblock=1:-3:-3 / analyse=0x3:0x133 / me=umh / subme=10 / psy=1 / psy_rd=0.90:0.00 / mixed_ref=1 / me_range=48 / chroma_me=1 / trellis=2 / 8x8dct=1 / cqm=0 / deadzone=21,11 / fast_pskip=0 / chroma_qp_offset=-2 / threads=9 / sliced_threads=0 / nr=0 / decimate=0 / interlaced=0 / bluray_compat=0 / constrained_intra=0 / bframes=8 / b_pyramid=2 / b_adapt=2 / b_bias=0 / direct=3 / weightb=1 / open_gop=0 / weightp=2 / keyint=360 / keyint_min=2 / scenecut=40 / intra_refresh=0 / rc_lookahead=120 / rc=2pass / mbtree=1 / bitrate=12563 / ratetol=1.0 / qcomp=0.70 / qpmin=0 / qpmax=69 / qpstep=4 / cplxblur=20.0 / qblur=0.5 / ip_ratio=1.40 / aq=2:0.90
Language : Norwegian
Audio #1
ID : 2
Format : AC-3
Format/Info : Audio Coding 3
Mode extension : CM (complete main)
Codec ID : A_AC3
Duration : 1h 40mn
Bit rate mode : Constant
Bit rate : 448 Kbps
Channel(s) : 6 channels
Channel positions : Front: L C R, Side: L R, LFE
Sampling rate : 48.0 KHz
Bit depth : 16 bits
Compression mode : Lossy
Stream size : 321 MiB (3%)
Title : DUB R5
Language : Russian
Audio #2
ID : 3
Format : DTS
Format/Info : Digital Theater Systems
Codec ID : A_DTS
Duration : 1h 40mn
Bit rate mode : Constant
Bit rate : 1 510 Kbps
Channel(s) : 6 channels
Channel positions : Front: L C R, Side: L R, LFE
Sampling rate : 48.0 KHz
Bit depth : 24 bits
Compression mode : Lossy
Stream size : 1.06 GiB (10%)
Language : Norwegian
Text #1
ID : 4
Format : UTF-8
Codec ID : S_TEXT/UTF8
Codec ID/Info : UTF-8 Plain Text
Language : Norwegian
Text #2
ID : 5
Format : UTF-8
Codec ID : S_TEXT/UTF8
Codec ID/Info : UTF-8 Plain Text
Language : English
Menu
00:00:00.000 : en:Chapter.01
00:06:50.458 : en:Chapter.02
00:12:57.625 : en:Chapter.03
00:17:13.750 : en:Chapter.04
00:24:38.958 : en:Chapter.05
00:30:14.916 : en:Chapter.06
00:36:21.708 : en:Chapter.07
00:41:42.291 : en:Chapter.08
00:48:17.125 : en:Chapter.09
00:53:49.166 : en:Chapter.10
00:58:47.500 : en:Chapter.11
01:05:00.083 : en:Chapter.12
01:12:10.166 : en:Chapter.13
01:20:13.041 : en:Chapter.14
01:27:04.041 : en:Chapter.15
01:34:20.958 : en:Chapter.16

x264

x264 [info]: frame I:819 Avg QP:16.40 size:212091x264 [info]: frame P:28345 Avg QP:19.19 size: 85474x264 [info]: frame B:114981 Avg QP:20.17 size: 59439x264 [info]: consecutive B-frames: 1.9% 1.6% 4.2% 10.4% 13.8% 50.6% 10.5% 3.2% 3.8%x264 [info]: mb I I16..4: 13.9% 72.3% 13.8%x264 [info]: mb P I16..4: 3.2% 16.8% 1.4% P16..4: 41.8% 25.3% 4.2% 0.6% 0.1% skip: 6.7%x264 [info]: mb B I16..4: 1.0% 4.1% 0.2% B16..8: 44.0% 16.9% 4.9% direct:11.8% skip:17.0% L0:46.4% L1:41.9% BI:11.7%x264 [info]: 8x8 transform intra:77.2% inter:47.3%x264 [info]: direct mvs spatial:97.5% temporal:2.5%x264 [info]: coded y,uvDC,uvAC intra: 94.5% 85.0% 60.6% inter: 56.8% 36.8% 11.8%x264 [info]: i16 v,h,dc,p: 18% 4% 40% 38%x264 [info]: i8 v,h,dc,ddl,ddr,vr,hd,vl,hu: 7% 7% 10% 11% 15% 13% 13% 12% 13%x264 [info]: i4 v,h,dc,ddl,ddr,vr,hd,vl,hu: 8% 7% 5% 10% 15% 13% 15% 12% 15%x264 [info]: i8c dc,h,v,p: 48% 20% 17% 15%x264 [info]: Weighted P-Frames: Y:2.0% UV:1.0%x264 [info]: ref P L0: 41.1% 8.5% 25.8% 12.5% 11.5% 0.5% 0.0%x264 [info]: ref B L0: 64.9% 24.5% 8.6% 2.0%x264 [info]: ref B L1: 87.7% 12.3%x264 [info]: kb/s:12561.77

Скриншоты


[Торрент-статистика]
[Профиль]  [ЛС] 

Mihukayte

Пол:

Стаж: 5 лет 5 месяцев

Сообщений: 15

Репутация: 0 [+] [-]

Откуда: Самара

Пост 20-Фев-2012 16:21 (спустя 3 часа)

[Цитировать] 

Пытался с пивом посмотреть этот фильм - ничего не вышло.... Придётся выбрать время и взглянуть всё-таки - разрекламировали знакомые.
[Торрент-статистика]
[Профиль]  [ЛС] 

rihardrihard

Стаж: 5 лет 4 месяца

Сообщений: 1

Репутация: 0 [+] [-]

Пост 26-Мар-2012 11:05 (спустя 1 месяц 5 дней)

[Цитировать] 

bi Замечательная игра актеров,лихо закрученный сюжет! Рекомендую всем смотреть. Качество картинки и звук супер.
[Торрент-статистика]
[Профиль]  [ЛС] 

ionium

Стаж: 5 лет 4 месяца

Сообщений: 4

Репутация: 0 [+] [-]

Пост 17-Фев-2013 17:34 (спустя 10 месяцев 22 дня)

[Цитировать] 

Отличный фильм Спасибо!!!
[Торрент-статистика]
[Профиль]  [ЛС] 
Показать сообщения:    
Ответить на тему

Текущее время: Сегодня 22:42

Часовой пояс: GMT + 4



Вы не можете начинать темы
Вы не можете отвечать на сообщения
Вы не можете редактировать свои сообщения
Вы не можете удалять свои сообщения
Вы не можете голосовать в опросах
Вы не можете прикреплять файлы к сообщениям
Вы не можете скачивать файлы