Пираты Карибского моря: На странных берегах / Pirates of the Caribbean: On Stranger Tides (Роб Маршалл / Rob Marshall) [2011, США, фэнтези, боевик, комедия, приключения, BDRemux 1080p] DUB

Ответить на тему
 
Автор
Сообщение

Волк ®

Пол:

Стаж: 5 лет 1 месяц

Сообщений: 689

Репутация: 292 [+] [-]

Откуда: Армения

Пост 20-Фев-2012 12:22

[Цитировать] 

Пираты Карибского моря: На странных берегах
Pirates of the Caribbean: On Stranger Tides- Год выхода: 2011
Страна: США | USA
Жанр: фэнтези, боевик, комедия, приключения
Продолжительность: 02:16:23
Перевод: профессиональный (полное дублирование)
Субтитры: Russian (forced), Russian (R5), Ukrainian (forced), Ukrainian (R5), English-Режиссер: Роб Маршалл / Rob Marshall
В ролях: Джонни Депп, Пенелопа Крус, Джеффри Раш, Иэн МакШейн, Кевин МакНэлли, Стивен Грэм, Сэм Клафлин, Астрид Берже-Фрисби, Кит Ричардс, Ричард Гриффитс-Описание:
В новой истории о поисках истины, предательстве, вечной молодости и смертельной опасности капитану Джеку Воробью предстоит столкнуться с женщиной из своего прошлого Анжеликой. До самого конца не будет понятно, связывает ли их настоящая любовь, или же Анжелика искусно притворяется, чтобы вместе с Джеком добраться до таинственного источника вечной молодости.
Она силой принуждает капитана Джека Воробья взойти на корабль «Месть Королевы Анны», которым управляет коварный злодей Черная Борода. Наш герой оказывается в ситуации, когда он не знает, чего ему бояться больше — ужасного злодея или же свою давнюю подругу.-За дороги и субтитры огромное спасибо: -Качество: BDRemux (tnx CHDBits)
Формат: MKV
Видео кодек: AVC
Аудио кодек: DTS
Видео: 1920x1080 at 23.976 fps, MPEG-4 AVC, ~25955 kbps avg
Аудио #1: 48 kHz, AC3, 3/2 (L,C,R,l,r) + LFE ch, ~384.00 kbps avg |Дубляж, R5 Russian |
Аудио #2: 48 kHz, AC3, 3/2 (L,C,R,l,r) + LFE ch, ~384.00 kbps avg |Дубляж, R5 Ukrainian|
Аудио #3: 48 kHz/24-bit, DTS-HD MA 7.1, ~5479.00 kbps avg |English|
Аудио #3: 48 kHz, AC3, 2/0 (L,R) ch, ~192.00 kbps avg |Commentary|
Субтитры: Russian (forced), Russian (R5), Ukrainian (forced), Ukrainian (R5), English-

Скриншоты



MI

Код:
General
Unique ID : 210404850606649724497894594347270400265 (0x9E4A800E9968CBB2804B947E1DC3E909)
Complete name : D:\HD\Pirates.of.the.Caribbean.On.Stranger.Tides.2011.1080p.BluRay.Rus.Ukr.Eng.mkv
Format : Matroska
File size : 30.7 GiB
Duration : 2h 16mn
Overall bit rate : 32.2 Mbps
Movie name : Pirates of the Caribbean: On Stranger Tides (2011) - Release for HDClub by doclogan
Encoded date : UTC 2011-08-26 18:07:24
Writing application : mkvmerge v4.4.0 ('Die Wiederkehr') сборка от Oct 31 2010 21:52:48
Writing library : libebml v1.0.0 + libmatroska v1.0.0
Video
ID : 1
Format : AVC
Format/Info : Advanced Video Codec
Format profile : High@L4.1
Format settings, CABAC : Yes
Format settings, ReFrames : 4 frames
Muxing mode : Container profile=Unknown@0.0
Codec ID : V_MPEG4/ISO/AVC
Duration : 2h 16mn
Bit rate mode : Variable
Bit rate : 27.0 Mbps
Maximum bit rate : 34.0 Mbps
Width : 1 920 pixels
Height : 1 080 pixels
Display aspect ratio : 16:9
Frame rate : 23.976 fps
Color space : YUV
Chroma subsampling : 4:2:0
Bit depth : 8 bits
Scan type : Progressive
Bits/(Pixel*Frame) : 0.544
Stream size : 25.8 GiB (84%)
Audio #1
ID : 2
Format : AC-3
Format/Info : Audio Coding 3
Mode extension : CM (complete main)
Codec ID : A_AC3
Duration : 2h 16mn
Bit rate mode : Constant
Bit rate : 384 Kbps
Channel(s) : 6 channels
Channel positions : Front: L C R, Side: L R, LFE
Sampling rate : 48.0 KHz
Bit depth : 16 bits
Compression mode : Lossy
Stream size : 375 MiB (1%)
Title : DD 5.1 @ 384 kbps – Дубляж (R5)
Language : Russian
Audio #2
ID : 3
Format : AC-3
Format/Info : Audio Coding 3
Mode extension : CM (complete main)
Codec ID : A_AC3
Duration : 2h 16mn
Bit rate mode : Constant
Bit rate : 384 Kbps
Channel(s) : 6 channels
Channel positions : Front: L C R, Side: L R, LFE
Sampling rate : 48.0 KHz
Bit depth : 16 bits
Compression mode : Lossy
Stream size : 375 MiB (1%)
Title : DD 5.1 @ 384 kbps – Дубляж (R5)
Language : Ukrainian
Audio #3
ID : 4
Format : AC-3
Format/Info : Audio Coding 3
Mode extension : CM (complete main)
Codec ID : A_AC3
Duration : 2h 16mn
Bit rate mode : Constant
Bit rate : 192 Kbps
Channel(s) : 2 channels
Channel positions : Front: L R
Sampling rate : 48.0 KHz
Bit depth : 16 bits
Compression mode : Lossy
Stream size : 187 MiB (1%)
Title : Commentary
Language : English
Audio #4
ID : 5
Format : DTS
Format/Info : Digital Theater Systems
Format profile : MA / Core
Codec ID : A_DTS
Duration : 2h 16mn
Bit rate mode : Variable
Bit rate : 3 607 Kbps / 1 510 Kbps
Channel(s) : 8 channels / 6 channels
Channel positions : Front: L C R, Side: L R, Back: L R, LFE / Front: L C R, Side: L R, LFE
Sampling rate : 48.0 KHz
Bit depth : 24 bits
Compression mode : Lossless / Lossy
Title : DTS HD
Language : English
Text #1
ID : 6
Format : UTF-8
Codec ID : S_TEXT/UTF8
Codec ID/Info : UTF-8 Plain Text
Title : forced
Language : Russian
Text #2
ID : 7
Format : UTF-8
Codec ID : S_TEXT/UTF8
Codec ID/Info : UTF-8 Plain Text
Title : forced
Language : Ukrainian
Text #3
ID : 8
Format : UTF-8
Codec ID : S_TEXT/UTF8
Codec ID/Info : UTF-8 Plain Text
Title : R5
Language : Russian
Text #4
ID : 9
Format : UTF-8
Codec ID : S_TEXT/UTF8
Codec ID/Info : UTF-8 Plain Text
Title : R5
Language : Ukrainian
Text #5
ID : 10
Format : UTF-8
Codec ID : S_TEXT/UTF8
Codec ID/Info : UTF-8 Plain Text
Language : English
Menu
00:00:00.000 : en:00:00:00.000
00:03:34.172 : en:00:03:34.172
00:08:46.776 : en:00:08:46.776
00:15:56.080 : en:00:15:56.080
00:18:34.155 : en:00:18:34.155
00:21:15.316 : en:00:21:15.316
00:30:05.512 : en:00:30:05.512
00:36:56.756 : en:00:36:56.756
00:42:05.356 : en:00:42:05.356
00:48:20.022 : en:00:48:20.022
00:53:26.078 : en:00:53:26.078
00:55:42.965 : en:00:55:42.965
00:57:52.844 : en:00:57:52.844
01:00:47.477 : en:01:00:47.477
01:08:22.223 : en:01:08:22.223
01:11:41.339 : en:01:11:41.339
01:13:03.170 : en:01:13:03.170
01:14:16.744 : en:01:14:16.744
01:23:19.995 : en:01:23:19.995
01:26:49.621 : en:01:26:49.621
01:30:16.494 : en:01:30:16.494
01:35:43.738 : en:01:35:43.738
01:40:57.927 : en:01:40:57.927
01:43:07.556 : en:01:43:07.556
01:44:51.660 : en:01:44:51.660
01:48:53.610 : en:01:48:53.610
01:57:41.471 : en:01:57:41.471
02:02:21.376 : en:02:02:21.376
02:05:51.461 : en:02:05:51.461
02:07:26.806 : en:02:07:26.806
[Торрент-статистика]
[Профиль]  [ЛС] 
Показать сообщения:    
Ответить на тему

Текущее время: Сегодня 22:07

Часовой пояс: GMT + 4



Вы не можете начинать темы
Вы не можете отвечать на сообщения
Вы не можете редактировать свои сообщения
Вы не можете удалять свои сообщения
Вы не можете голосовать в опросах
Вы не можете прикреплять файлы к сообщениям
Вы не можете скачивать файлы