Клаустрофобы / Escape Room (Адам Робител / Adam Robitel) [2019, США, ЮАР, Триллер, BDRemux 1080p] Dub (BD EUR) + Dub (UKR) + Sub Rus, Eng + Original Eng

Ответить на тему
 
Автор
Сообщение

Волк ®

Пол:

Стаж: 9 лет 5 месяцев

Сообщений: 892

Репутация: 333 [+] [-]

Откуда: Армения

Пост 13-Мар-2021 22:04

[Цитировать] 

Клаустрофобы / Escape Room
«Игры кончились»
- Страна: США, ЮАР
Студия: Original Film
Жанр: Триллер
Год выпуска: 2019
Продолжительность: 01:39:37
Перевод 1: Профессиональный (дублированный) BD EUR | Русский |
Перевод 2: Профессиональный (дублированный) BD EUR | Украинский |
Субтитры: Русские (Forced, Full) Английские (Full, SDH)
Оригинальная аудиодорожка: Английский-Режиссер: Адам Робител / Adam Robitel-В ролях: Тейлор Расселл, Логан Миллер, Джей Эллис, Тайлер Лабин, Дебора Энн Уолл, Ник Додани, Йорик ван Вагенинген, Корнелиус Джини мл., Рассел Кроус, Барт Фаш-Описание: Получив от таинственной организации приглашение сыграть в квест, победитель которого получит солидную сумму, шестеро незнакомых между собой людей решают попытать удачу. Но совсем скоро им становится понятно, что их выбрали для игры не случайно, задания не такие безобидные, и им грозит вполне реальная опасность, а ставка в игре - их собственные жизни.-IMDB | КиноПоиск | Сэмпл- -Премьера в Росcии: 7 февраля 2019, «WDSSPR»
Премьера в мире: 3 января 2019
Цифровой релиз: 11 апреля 2019, «Sony Pictures Home Entertainment»-Тип релиза: BDRemux 1080p
Контейнер: MKV
Видео: MPEG-4 AVC, 1920x1080, 23.9 Mbit/s, 23.976 fps, 0.480 bit/pixel
Аудио 1: 48 kHz, AC3 Dolby Digital, 3/2 (L,C,R,l,r) + LFE ch, ~640 kbps | | RUS
Аудио 2: 48 kHz, AC3 Dolby Digital, 3/2 (L,C,R,l,r) + LFE ch, ~640 kbps | | UKR
Аудио 3: 48 kHz, DTS-HD MA, 5.1, (C L R Ls Rs) + LFE ch, ~2247 Kbps (DTS Core: 5.1 / 48 kHz / 1509 kbps / 16-bit) | | ENG-

MediaInfo

Код:
General
Unique ID                   : 149322707307517133212533733707358126826 (0x705681E0E8147BEC9A19925104ABC2EA)
Complete name               : E:\Kino\HD\Escape Room (2019) BDRemux 1080p.mkv
Format                      : Matroska
Format version              : Version 4
File size                   : 19.1 GiB
Duration                    : 1 h 39 min
Overall bit rate mode       : Variable
Overall bit rate            : 27.4 Mb/s
Movie name                  : Клаустрофобы | Escape Room (2019) BDRemux 1080p
Encoded date                : UTC 2021-03-13 16:39:10
Writing application         : mkvmerge v55.0.0 ('Waiting For Space') 64-bit
Writing library             : libebml v1.4.2 + libmatroska v1.6.4
Cover                       : Yes
Attachments                 : cover.png
Video
ID                          : 1
Format                      : AVC
Format/Info                 : Advanced Video Codec
Format profile              : High@L4.1
Format settings             : CABAC / 2 Ref Frames
Format settings, CABAC      : Yes
Format settings, Reference  : 2 frames
Format settings, GOP        : M=1, N=10
Codec ID                    : V_MPEG4/ISO/AVC
Duration                    : 1 h 39 min
Bit rate mode               : Variable
Bit rate                    : 23.9 Mb/s
Width                       : 1 920 pixels
Height                      : 1 080 pixels
Display aspect ratio        : 16:9
Frame rate mode             : Constant
Frame rate                  : 23.976 (24000/1001) FPS
Color space                 : YUV
Chroma subsampling          : 4:2:0
Bit depth                   : 8 bits
Scan type                   : Progressive
Bits/(Pixel*Frame)          : 0.480
Stream size                 : 16.6 GiB (87%)
Title                       : Клаустрофобы (2019) BDRemux 1080p
Language                    : English
Default                     : Yes
Forced                      : No
Audio #1
ID                          : 2
Format                      : AC-3
Format/Info                 : Audio Coding 3
Commercial name             : Dolby Digital
Codec ID                    : A_AC3
Duration                    : 1 h 39 min
Bit rate mode               : Constant
Bit rate                    : 640 kb/s
Channel(s)                  : 6 channels
Channel layout              : L R C LFE Ls Rs
Sampling rate               : 48.0 kHz
Frame rate                  : 31.250 FPS (1536 SPF)
Compression mode            : Lossy
Stream size                 : 456 MiB (2%)
Title                       : Русский (дублированный) BD EUR
Language                    : Russian
Service kind                : Complete Main
Default                     : Yes
Forced                      : Yes
Audio #2
ID                          : 3
Format                      : AC-3
Format/Info                 : Audio Coding 3
Commercial name             : Dolby Digital
Codec ID                    : A_AC3
Duration                    : 1 h 39 min
Bit rate mode               : Constant
Bit rate                    : 640 kb/s
Channel(s)                  : 6 channels
Channel layout              : L R C LFE Ls Rs
Sampling rate               : 48.0 kHz
Frame rate                  : 31.250 FPS (1536 SPF)
Compression mode            : Lossy
Stream size                 : 456 MiB (2%)
Title                       : Украинский (дублированный) BD EUR
Language                    : Ukrainian
Service kind                : Complete Main
Default                     : No
Forced                      : No
Audio #3
ID                          : 4
Format                      : DTS XLL
Format/Info                 : Digital Theater Systems
Commercial name             : DTS-HD Master Audio
Codec ID                    : A_DTS
Duration                    : 1 h 39 min
Bit rate mode               : Variable
Bit rate                    : 2 247 kb/s
Channel(s)                  : 6 channels
Channel layout              : C L R Ls Rs LFE
Sampling rate               : 48.0 kHz
Frame rate                  : 93.750 FPS (512 SPF)
Bit depth                   : 16 bits
Compression mode            : Lossless
Stream size                 : 1.56 GiB (8%)
Title                       : Английский | English | DTS-HD | MA
Language                    : English
Default                     : No
Forced                      : No
Text #1
ID                          : 5
Format                      : UTF-8
Codec ID                    : S_TEXT/UTF8
Codec ID/Info               : UTF-8 Plain Text
Duration                    : 1 h 34 min
Bit rate                    : 0 b/s
Count of elements           : 5
Stream size                 : 178 Bytes (0%)
Title                       : Русские (Forced)
Language                    : Russian
Default                     : Yes
Forced                      : No
Text #2
ID                          : 6
Format                      : UTF-8
Codec ID                    : S_TEXT/UTF8
Codec ID/Info               : UTF-8 Plain Text
Duration                    : 1 h 38 min
Bit rate                    : 93 b/s
Count of elements           : 1356
Stream size                 : 67.7 KiB (0%)
Title                       : Русские (Full)
Language                    : Russian
Default                     : No
Forced                      : No
Text #3
ID                          : 7
Format                      : UTF-8
Codec ID                    : S_TEXT/UTF8
Codec ID/Info               : UTF-8 Plain Text
Duration                    : 1 h 33 min
Bit rate                    : 70 b/s
Count of elements           : 1553
Stream size                 : 48.6 KiB (0%)
Title                       : Английские (Full)
Language                    : English
Default                     : No
Forced                      : No
Text #4
ID                          : 8
Format                      : UTF-8
Codec ID                    : S_TEXT/UTF8
Codec ID/Info               : UTF-8 Plain Text
Duration                    : 1 h 37 min
Bit rate                    : 72 b/s
Count of elements           : 1764
Stream size                 : 51.7 KiB (0%)
Title                       : Английские (SDH)
Language                    : English
Default                     : No
Forced                      : No
Menu #1
00:00:00.000                : en:Глава 01
00:04:36.026                : en:Глава 02
00:09:25.648                : en:Глава 03
00:14:08.765                : en:Глава 04
00:19:46.102                : en:Глава 05
00:25:55.220                : en:Глава 06
00:33:08.945                : en:Глава 07
00:37:27.162                : en:Глава 08
00:43:05.082                : en:Глава 09
00:50:06.170                : en:Глава 10
00:53:58.569                : en:Глава 11
01:03:15.291                : en:Глава 12
01:09:07.894                : en:Глава 13
01:16:14.695                : en:Глава 14
01:22:48.755                : en:Глава 15
01:30:27.881                : en:Глава 16
Menu #2
00:00:00.000                : en:00:00:00.000
00:04:36.026                : en:00:04:36.026
00:09:25.648                : en:00:09:25.648
00:14:08.765                : en:00:14:08.765
00:19:46.102                : en:00:19:46.102
00:25:55.220                : en:00:25:55.220
00:33:08.945                : en:00:33:08.945
00:37:27.162                : en:00:37:27.162
00:43:05.082                : en:00:43:05.082
00:50:06.170                : en:00:50:06.170
00:53:58.569                : en:00:53:58.569
01:03:15.291                : en:01:03:15.291
01:09:07.894                : en:01:09:07.894
01:16:14.695                : en:01:16:14.695
01:22:48.755                : en:01:22:48.755
01:30:27.881                : en:01:30:27.881

Скриншоты


_________________
Мои раздачи
[Торрент-статистика]
[Профиль]  [ЛС] 
Показать сообщения:    
Ответить на тему

Текущее время: Сегодня 10:58

Часовой пояс: GMT + 4



Вы не можете начинать темы
Вы не можете отвечать на сообщения
Вы не можете редактировать свои сообщения
Вы не можете удалять свои сообщения
Вы не можете голосовать в опросах
Вы не можете прикреплять файлы к сообщениям
Вы не можете скачивать файлы