Все оттенки Токио / Lost Girls and Love Hotels (Уильям Олссон / William Olsson) [2020, США, Япония, Драма, триллер, BDRemux 1080p] Dub (RUS) + Dub (UKR) + Sub Eng + Original Eng

Ответить на тему
 
Автор
Сообщение

Волк ®

Пол:

Стаж: 9 лет 5 месяцев

Сообщений: 892

Репутация: 333 [+] [-]

Откуда: Армения

Пост 26-Фев-2021 00:24

[Цитировать] 

Все оттенки Токио / Lost Girls and Love Hotels- Страна: США, Япония
Студия: Blackbird, Wandering Trail Pictures
Жанр: Драма, триллер
Год выпуска: 2020
Продолжительность: 01:36:56
Перевод 1: Профессиональный (дублированный) Русский
Перевод 2: Профессиональный (дублированный) Украинский
Субтитры: Английские (SDH)
Оригинальная аудиодорожка: Английский-Режиссер: Уильям Олссон / William Olsson-В ролях: Александра Даддарио, Такэхиро Хира, Кэрис ван Хаутен, Даша Тэраниси, Марико Цуцуи, Анастасия Насу, Эндрю Ротни, Элизабет Ларена, Асука Куросава, Кейт Кастонгуэй-Описание: Пытаясь бежать от прошлого, Маргарет переезжает в Японию. Днем она преподает английский, а ночью ищет впечатлений в экзотической жизни Токио с его шумными барами, опасными связями и отелями любви. Но однажды в городе пропадает очень похожая на нее девушка, а саму Маргарет затягивает безумный роман с загадочным красавцем-якудза, который втягивает ее в мир запретных наслаждений.-IMDB | КиноПоиск | Сэмпл- -Тип релиза: BDRemux 1080p
Контейнер: MKV
Видео: MPEG-4 AVC, 1920x1080, 34.1 Mbit/s, 24.000 fps, 0.685 bit/pixel
Аудио 1: 48 kHz, AC3 Dolby Digital, 3/2 (L,C,R,l,r) + LFE ch, ~384 kbps | | RUS
Аудио 2: 48 kHz, AC3 Dolby Digital, 3/2 (L,C,R,l,r) + LFE ch, ~384 kbps | | UKR
Аудио 3: 48 kHz, DTS-HD MA, 5.1, (C L R Ls Rs) + LFE ch, ~3100 Kbps (DTS Core: 5.1 / 48 kHz / 1509 kbps / 24-bit) | | ENG-

MediaInfo

Код:
General
Unique ID                   : 211170153031710825855258310403115639807 (0x9EDDE461385727B2C1718AE0CA1AE3FF)
Complete name               : E:\Kino\HD\Lost Girls and Love Hotels (2020) BDRemux 1080p.mkv
Format                      : Matroska
Format version              : Version 4
File size                   : 25.7 GiB
Duration                    : 1 h 36 min
Overall bit rate mode       : Variable
Overall bit rate            : 38.0 Mb/s
Movie name                  : Все оттенки Токио | Lost Girls and Love Hotels (2020) BDRemux 1080p
Encoded date                : UTC 2021-02-25 18:03:20
Writing application         : mkvmerge v53.0.0 ('Fool's Gold') 64-bit
Writing library             : libebml v1.4.1 + libmatroska v1.6.2
Cover                       : Yes
Attachments                 : cover.png
Video
ID                          : 1
Format                      : AVC
Format/Info                 : Advanced Video Codec
Format profile              : High@L4.1
Format settings             : CABAC / 4 Ref Frames
Format settings, CABAC      : Yes
Format settings, Reference  : 4 frames
Format settings, GOP        : M=3, N=12
Codec ID                    : V_MPEG4/ISO/AVC
Duration                    : 1 h 36 min
Bit rate mode               : Variable
Bit rate                    : 34.1 Mb/s
Maximum bit rate            : 36.0 Mb/s
Width                       : 1 920 pixels
Height                      : 1 080 pixels
Display aspect ratio        : 16:9
Frame rate mode             : Constant
Frame rate                  : 24.000 FPS
Color space                 : YUV
Chroma subsampling          : 4:2:0
Bit depth                   : 8 bits
Scan type                   : Progressive
Bits/(Pixel*Frame)          : 0.685
Stream size                 : 23.1 GiB (90%)
Title                       : Все оттенки Токио (2020) BDRemux 1080p
Language                    : English
Default                     : Yes
Forced                      : No
Audio #1
ID                          : 2
Format                      : AC-3
Format/Info                 : Audio Coding 3
Commercial name             : Dolby Digital
Codec ID                    : A_AC3
Duration                    : 1 h 36 min
Bit rate mode               : Constant
Bit rate                    : 384 kb/s
Channel(s)                  : 6 channels
Channel layout              : L R C LFE Ls Rs
Sampling rate               : 48.0 kHz
Frame rate                  : 31.250 FPS (1536 SPF)
Compression mode            : Lossy
Stream size                 : 266 MiB (1%)
Title                       : Профессиональный (дублированный) Русский
Language                    : Russian
Service kind                : Complete Main
Default                     : Yes
Forced                      : Yes
Audio #2
ID                          : 3
Format                      : AC-3
Format/Info                 : Audio Coding 3
Commercial name             : Dolby Digital
Codec ID                    : A_AC3
Duration                    : 1 h 36 min
Bit rate mode               : Constant
Bit rate                    : 384 kb/s
Channel(s)                  : 6 channels
Channel layout              : L R C LFE Ls Rs
Sampling rate               : 48.0 kHz
Frame rate                  : 31.250 FPS (1536 SPF)
Compression mode            : Lossy
Stream size                 : 266 MiB (1%)
Title                       : Профессиональный (дублированный) Украинский
Language                    : Ukrainian
Service kind                : Complete Main
Default                     : No
Forced                      : No
Audio #3
ID                          : 4
Format                      : DTS XLL
Format/Info                 : Digital Theater Systems
Commercial name             : DTS-HD Master Audio
Codec ID                    : A_DTS
Duration                    : 1 h 36 min
Bit rate mode               : Variable
Bit rate                    : 3 100 kb/s
Channel(s)                  : 6 channels
Channel layout              : C L R Ls Rs LFE
Sampling rate               : 48.0 kHz
Frame rate                  : 93.750 FPS (512 SPF)
Bit depth                   : 24 bits
Compression mode            : Lossless
Stream size                 : 2.10 GiB (8%)
Title                       : Английский | English | DTS-HD | MA
Language                    : English
Default                     : No
Forced                      : No
Text
ID                          : 5
Format                      : UTF-8
Codec ID                    : S_TEXT/UTF8
Codec ID/Info               : UTF-8 Plain Text
Duration                    : 1 h 29 min
Bit rate                    : 23 b/s
Count of elements           : 662
Stream size                 : 15.6 KiB (0%)
Title                       : Английские (SDH)
Language                    : English
Default                     : No
Forced                      : No
Menu
00:00:00.000                : en:Глава 01
00:04:18.583                : en:Глава 02
00:10:44.708                : en:Глава 03
00:16:31.250                : en:Глава 04
00:24:10.625                : en:Глава 05
00:33:42.875                : en:Глава 06
00:40:04.625                : en:Глава 07
00:45:47.708                : en:Глава 08
00:51:36.708                : en:Глава 09
00:55:53.750                : en:Глава 10
01:02:25.292                : en:Глава 11
01:09:24.042                : en:Глава 12
01:15:03.375                : en:Глава 13
01:23:38.833                : en:Глава 14
01:29:17.417                : en:Глава 15
01:32:20.208                : en:Глава 16

Скриншоты


_________________
Мои раздачи
[Торрент-статистика]
[Профиль]  [ЛС] 
Показать сообщения:    
Ответить на тему

Текущее время: Сегодня 06:15

Часовой пояс: GMT + 4



Вы не можете начинать темы
Вы не можете отвечать на сообщения
Вы не можете редактировать свои сообщения
Вы не можете удалять свои сообщения
Вы не можете голосовать в опросах
Вы не можете прикреплять файлы к сообщениям
Вы не можете скачивать файлы