Космические чистильщики / Space Sweepers / Seungriho (Чо Сон-хи Jo / Seong-hee) [2021, Южная Корея, фантастика, комедия, приключения, WEB-DL 1080p] MVO (HDRezka Studio) + DVO (AmazingDubbing) + Sub Rus, Eng, Spa, Fra, Deu, Ita, Por + Eng + Original K

Ответить на тему
 
Автор
Сообщение

Волк ®

Пол:

Стаж: 9 лет 5 месяцев

Сообщений: 892

Репутация: 333 [+] [-]

Откуда: Армения

Пост 22-Фев-2021 00:43

[Цитировать] 

Космические чистильщики / Space Sweepers / Seungriho
«These misfits just might save the world»

- Страна: Южная Корея
Студия: Bidangil Pictures, Huayi Tencent Entertainment Company, Merry Christmas Entertainment, Netflix
Жанр: Фантастика, комедия, приключения
Год выпуска: 2021
Продолжительность: 02:17:51
Перевод 1: Любительский (многоголосый закадровый) HDRezka Studio
Перевод 2: Любительский (двухголосый закадровый) AmazingDubbing
Субтитры: Русские (Forced, Full), Английские, Испанские, Французские, Немецкие, Итальянские, Португальские | Netflix
Оригинальная аудиодорожка: Корейский-Режиссер: Чо Сон-хи Jo / Seong-hee-В ролях: Сон Джун-ги, Ким Тхэ-ри, Чин Сон-гю, Ю Хэ-джин, Ричард Армитедж, Ким Дэ-хан, О Юн-су, Пак Е-рин-Описание: 2092 год. Команда космического мусороуборочного корабля «Победа» бороздит просторы вселенной. Красавица-капитан, вечный нищеброд Тхэ-хо, матёрый космонавт Тайгер Пак и робот однажды находят с виду безобидного человекоподобного робота-ребёнка, который, как выясняется, является оружием массового поражения. Наши герои решают разнообразить свою унылую жизнь и извлечь из ситуации выгоду.-IMDB | КиноПоиск | Сэмпл-Премьера в мире: 29 января 2021
Цифровой релиз: 5 февраля 2021, «Netflix»-Тип релиза: WEB-DL 1080p
Контейнер: MKV
Видео: MPEG-4 AVC, 7 008 kb/s, 1920x1080, 23.976 fps
Аудио 1: 48 kHz, AC3 Dolby Digital, 3/2 (L,C,R,l,r) + LFE ch, ~448 kbps | RUS | HDRezka Studio
Аудио 2: 48 kHz, AC3 Dolby Digital, 2/0 (L,R) ch, ~256 kbps | RUS | AmazingDubbing
Аудио 3: 48 kHz, E-AC3 Dolby Digital+Atmos, 3/2 (L, C, R, l, r) + LFE ch, ~768 Kbps | ENG |
Аудио 4: 48 kHz, E-AC3 Dolby Digital+Atmos, 3/2 (L, C, R, l, r) + LFE ch, ~768 Kbps | KOR |-

MediaInfo

Код:
General
Unique ID                   : 119004391777921174087367057139430573518 (0x59876983924153B33E2279355CC3C5CE)
Complete name               : E:\Kino\HD\Space Sweepers (2021) WEB-DL 1080p.mkv
Format                      : Matroska
Format version              : Version 4
File size                   : 8.90 GiB
Duration                    : 2 h 17 min
Overall bit rate mode       : Variable
Overall bit rate            : 9 247 kb/s
Movie name                  : Космические уборщики | Seungriho | Space Sweepers (2021) WEB-DL 1080p
Encoded date                : UTC 2021-02-13 19:17:11
Writing application         : mkvmerge v51.0.0 ('I Wish') 64-bit
Writing library             : libebml v1.4.0 + libmatroska v1.6.2
Cover                       : Yes
Attachments                 : cover.png
Video
ID                          : 1
Format                      : AVC
Format/Info                 : Advanced Video Codec
Format profile              : High@L4
Format settings             : CABAC / 4 Ref Frames
Format settings, CABAC      : Yes
Format settings, Reference  : 4 frames
Codec ID                    : V_MPEG4/ISO/AVC
Duration                    : 2 h 17 min
Bit rate mode               : Variable
Bit rate                    : 7 008 kb/s
Maximum bit rate            : 20.0 Mb/s
Width                       : 1 920 pixels
Height                      : 1 080 pixels
Display aspect ratio        : 16:9
Frame rate mode             : Constant
Frame rate                  : 23.976 (24000/1001) FPS
Color space                 : YUV
Chroma subsampling          : 4:2:0
Bit depth                   : 8 bits
Scan type                   : Progressive
Bits/(Pixel*Frame)          : 0.141
Stream size                 : 6.74 GiB (76%)
Writing library             : x264 core 148 r2722 1b0121b
Encoding settings           : cabac=1 / ref=4 / deblock=1:0:0 / analyse=0x3:0x111 / me=umh / subme=10 / psy=1 / psy_rd=1.00:0.00 / mixed_ref=1 / me_range=120 / chroma_me=1 / trellis=2 / 8x8dct=1 / cqm=0 / deadzone=21,11 / fast_pskip=1 / chroma_qp_offset=-2 / threads=8 / lookahead_threads=2 / sliced_threads=0 / nr=0 / decimate=1 / interlaced=0 / bluray_compat=0 / stitchable=1 / constrained_intra=0 / bframes=16 / b_pyramid=2 / b_adapt=2 / b_bias=0 / direct=3 / weightb=1 / open_gop=0 / weightp=2 / keyint=240 / keyint_min=121 / scenecut=0 / intra_refresh=0 / rc_lookahead=240 / rc=crf / mbtree=1 / crf=16.0 / qcomp=0.50 / qpmin=6 / qpmax=51 / qpstep=4 / vbv_maxrate=20000 / vbv_bufsize=25000 / crf_max=0.0 / nal_hrd=vbr / filler=0 / ip_ratio=1.40 / aq=1:0.80
Language                    : English
Default                     : Yes
Forced                      : No
Audio #1
ID                          : 2
Format                      : AC-3
Format/Info                 : Audio Coding 3
Commercial name             : Dolby Digital
Codec ID                    : A_AC3
Duration                    : 2 h 17 min
Bit rate mode               : Constant
Bit rate                    : 448 kb/s
Channel(s)                  : 6 channels
Channel layout              : L R C LFE Ls Rs
Sampling rate               : 48.0 kHz
Frame rate                  : 31.250 FPS (1536 SPF)
Compression mode            : Lossy
Stream size                 : 442 MiB (5%)
Title                       : Профессиональный пногоголосый | HDRezka Studio
Language                    : Russian
Service kind                : Complete Main
Default                     : Yes
Forced                      : No
Audio #2
ID                          : 3
Format                      : AC-3
Format/Info                 : Audio Coding 3
Commercial name             : Dolby Digital
Codec ID                    : A_AC3
Duration                    : 2 h 17 min
Bit rate mode               : Constant
Bit rate                    : 256 kb/s
Channel(s)                  : 2 channels
Channel layout              : L R
Sampling rate               : 48.0 kHz
Frame rate                  : 31.250 FPS (1536 SPF)
Compression mode            : Lossy
Stream size                 : 252 MiB (3%)
Title                       : Любительский (двухголосый, закадровый) AmazingDubbing
Language                    : Russian
Service kind                : Complete Main
Default                     : No
Forced                      : No
Audio #3
ID                          : 4
Format                      : E-AC-3 JOC
Format/Info                 : Enhanced AC-3 with Joint Object Coding
Commercial name             : Dolby Digital Plus with Dolby Atmos
Codec ID                    : A_EAC3
Duration                    : 2 h 17 min
Bit rate mode               : Constant
Bit rate                    : 768 kb/s
Channel(s)                  : 6 channels
Channel layout              : L R C LFE Ls Rs
Sampling rate               : 48.0 kHz
Frame rate                  : 31.250 FPS (1536 SPF)
Compression mode            : Lossy
Stream size                 : 757 MiB (8%)
Title                       : Английский | English | Dolby Atmos
Language                    : English
Service kind                : Complete Main
Default                     : No
Forced                      : No
Complexity index            : 16
Number of dynamic objects   : 15
Bed channel count           : 1 channel
Bed channel configuration   : LFE
Audio #4
ID                          : 5
Format                      : E-AC-3 JOC
Format/Info                 : Enhanced AC-3 with Joint Object Coding
Commercial name             : Dolby Digital Plus with Dolby Atmos
Codec ID                    : A_EAC3
Duration                    : 2 h 17 min
Bit rate mode               : Constant
Bit rate                    : 768 kb/s
Channel(s)                  : 6 channels
Channel layout              : L R C LFE Ls Rs
Sampling rate               : 48.0 kHz
Frame rate                  : 31.250 FPS (1536 SPF)
Compression mode            : Lossy
Stream size                 : 757 MiB (8%)
Title                       : Корейский | Korean | Dolby Atmos
Language                    : Korean
Service kind                : Complete Main
Default                     : No
Forced                      : No
Complexity index            : 16
Number of dynamic objects   : 15
Bed channel count           : 1 channel
Bed channel configuration   : LFE
Text #1
ID                          : 6
Format                      : UTF-8
Codec ID                    : S_TEXT/UTF8
Codec ID/Info               : UTF-8 Plain Text
Duration                    : 2 h 8 min
Bit rate                    : 4 b/s
Count of elements           : 82
Stream size                 : 4.66 KiB (0%)
Title                       : Русские (Forced)
Language                    : Russian
Default                     : No
Forced                      : No
Text #2
ID                          : 7
Format                      : UTF-8
Codec ID                    : S_TEXT/UTF8
Codec ID/Info               : UTF-8 Plain Text
Duration                    : 2 h 15 min
Bit rate                    : 89 b/s
Count of elements           : 1616
Stream size                 : 89.3 KiB (0%)
Title                       : Русские (Full)
Language                    : Russian
Default                     : No
Forced                      : No
Text #3
ID                          : 8
Format                      : UTF-8
Codec ID                    : S_TEXT/UTF8
Codec ID/Info               : UTF-8 Plain Text
Duration                    : 2 h 14 min
Bit rate                    : 3 b/s
Count of elements           : 128
Stream size                 : 3.58 KiB (0%)
Title                       : Английские (Forced)
Language                    : English
Default                     : No
Forced                      : No
Text #4
ID                          : 9
Format                      : UTF-8
Codec ID                    : S_TEXT/UTF8
Codec ID/Info               : UTF-8 Plain Text
Duration                    : 2 h 14 min
Bit rate                    : 34 b/s
Count of elements           : 1116
Stream size                 : 33.5 KiB (0%)
Title                       : Английские
Language                    : English
Default                     : No
Forced                      : No
Text #5
ID                          : 10
Format                      : UTF-8
Codec ID                    : S_TEXT/UTF8
Codec ID/Info               : UTF-8 Plain Text
Duration                    : 2 h 15 min
Bit rate                    : 78 b/s
Count of elements           : 2177
Stream size                 : 78.1 KiB (0%)
Title                       : Английские (SDH)
Language                    : English
Default                     : No
Forced                      : No
Text #6
ID                          : 11
Format                      : UTF-8
Codec ID                    : S_TEXT/UTF8
Codec ID/Info               : UTF-8 Plain Text
Duration                    : 2 h 15 min
Bit rate                    : 56 b/s
Count of elements           : 1616
Stream size                 : 56.1 KiB (0%)
Title                       : Немецкие
Language                    : German
Default                     : No
Forced                      : No
Text #7
ID                          : 12
Format                      : UTF-8
Codec ID                    : S_TEXT/UTF8
Codec ID/Info               : UTF-8 Plain Text
Duration                    : 2 h 15 min
Bit rate                    : 58 b/s
Count of elements           : 1685
Stream size                 : 57.9 KiB (0%)
Title                       : Французские
Language                    : French
Default                     : No
Forced                      : No
Text #8
ID                          : 13
Format                      : UTF-8
Codec ID                    : S_TEXT/UTF8
Codec ID/Info               : UTF-8 Plain Text
Duration                    : 2 h 15 min
Bit rate                    : 53 b/s
Count of elements           : 1591
Stream size                 : 53.0 KiB (0%)
Title                       : Испанские
Language                    : Spanish
Default                     : No
Forced                      : No
Text #9
ID                          : 14
Format                      : UTF-8
Codec ID                    : S_TEXT/UTF8
Codec ID/Info               : UTF-8 Plain Text
Duration                    : 2 h 15 min
Bit rate                    : 55 b/s
Count of elements           : 1615
Stream size                 : 54.8 KiB (0%)
Title                       : Итальянские
Language                    : Italian
Default                     : No
Forced                      : No
Text #10
ID                          : 15
Format                      : UTF-8
Codec ID                    : S_TEXT/UTF8
Codec ID/Info               : UTF-8 Plain Text
Duration                    : 2 h 15 min
Bit rate                    : 53 b/s
Count of elements           : 1671
Stream size                 : 53.2 KiB (0%)
Title                       : Португальские
Language                    : Portuguese
Default                     : No
Forced                      : No

Скриншоты


_________________
Мои раздачи
[Торрент-статистика]
[Профиль]  [ЛС] 
Показать сообщения:    
Ответить на тему

Текущее время: Сегодня 02:06

Часовой пояс: GMT + 4



Вы не можете начинать темы
Вы не можете отвечать на сообщения
Вы не можете редактировать свои сообщения
Вы не можете удалять свои сообщения
Вы не можете голосовать в опросах
Вы не можете прикреплять файлы к сообщениям
Вы не можете скачивать файлы