Иуда и чёрный мессия / Judas and the Black Messiah (Шака Кинг / Shaka King) [2021, США, Биография, драма, история, криминал, WEB-DL 1080p] MVO (AMS) + Sub Eng + Original Eng

Ответить на тему
 
Автор
Сообщение

Волк ®

Пол:

Стаж: 9 лет 5 месяцев

Сообщений: 892

Репутация: 333 [+] [-]

Откуда: Армения

Пост 21-Фев-2021 23:38

[Цитировать] 

Иуда и чёрный мессия / Judas and the Black Messiah-
Страна: США
Студия: Bron Creative, MACRO, Participant, Proximity
Жанр: Биография, драма, история, криминал
Год выпуска: 2021
Продолжительность: 02:05:25
Перевод: Профессиональный (многоголосый закадровый) | AMS
Субтитры: Английские (Full, SDH)
Оригинальная аудиодорожка: Английский-Режиссер: Шака Кинг / Shaka King-В ролях: Дэниел Калуя, ЛаКит Стэнфилд, Джесси Племонс, Доминик Фишбек, Эштон Сандерс, Мартин Шин, Элджи Смит, Лил Рел Хоуэри, Даррелл Бритт-Гибсон, Доминик Торн, Жермен Фаулер, Роберт Лонгстрит, Крис Дэвис, Калеб Эберхардт, Алисия Джой Пауэлл, Майкл Мик Харрити, Терайл Хилл, Кристал Ли Браун, Карл Энтони Несполи, Амари Читом, Николас Велес, Дэвид Армстронг (II), Леди Ренье Рейдж, Адам Рэтклифф, Клифф Уайссмэн, Роберт Форт Шеннон, Куан МуйВон, Айрон Армстронг, Брайан Андрас, Томми Лафит, Риз Фостер, Майк Кьюз, Крис Хан, Зак Ли, Чайна Шейверс-Описание: Чикаго, 1968 год. Попавшись на угоне машины с поддельным удостоверением ФБР, преступник Уильям О’Нил соглашается на сделку с федералами. Он внедряется в отделение радикальной организации «Чёрные пантеры» и втирается в доверие к её лидеру Фреду Хэмптону, как раз когда тот начинает объединять местные этнические организации в «Радужную коалицию».-IMDB | КиноПоиск | Сэмпл-Премьера в мире: 1 февраля 2021-Тип релиза: WEB-DL 1080p
Контейнер: MKV
Видео: MPEG-4 AVC, 1920x1080, 8 233 Kbit/s, 23.976 fps, BT.709
Аудио 1: 48 kHz, AC3 Dolby Digital, 3/2 (L,C,R,l,r) + LFE ch, ~640 kbps | |
Аудио 2: 48 kHz, E-AC3 Dolby Digital+Atmos, 3/2 (L, C, R, l, r) + LFE ch, ~768 Kbps | |-

MediaInfo

Код:
General
Unique ID                   : 327951616931495930488909100120543181028 (0xF6B92F166B9EAFA04501CD42151DB8E4)
Complete name               : E:\Kino\HD\Judas and the Black Messiah (2021) WEB-DL 1080p.mkv
Format                      : Matroska
Format version              : Version 4
File size                   : 8.45 GiB
Duration                    : 2 h 5 min
Overall bit rate mode       : Variable
Overall bit rate            : 9 643 kb/s
Movie name                  : Иуда и чёрный мессия | Judas and the Black Messiah | 2021 | WEB-DL 1080p
Encoded date                : UTC 2021-02-21 15:40:35
Writing application         : mkvmerge v51.0.0 ('I Wish') 64-bit
Writing library             : libebml v1.4.0 + libmatroska v1.6.2
Cover                       : Yes
Attachments                 : cover.png
Video
ID                          : 1
Format                      : AVC
Format/Info                 : Advanced Video Codec
Format profile              : High@L4
Format settings             : CABAC / 4 Ref Frames
Format settings, CABAC      : Yes
Format settings, Reference  : 4 frames
Codec ID                    : V_MPEG4/ISO/AVC
Duration                    : 2 h 5 min
Bit rate mode               : Variable
Bit rate                    : 8 233 kb/s
Maximum bit rate            : 12.4 Mb/s
Width                       : 1 920 pixels
Height                      : 1 080 pixels
Display aspect ratio        : 16:9
Frame rate mode             : Constant
Frame rate                  : 23.976 (24000/1001) FPS
Color space                 : YUV
Chroma subsampling          : 4:2:0
Bit depth                   : 8 bits
Scan type                   : Progressive
Bits/(Pixel*Frame)          : 0.166
Stream size                 : 7.21 GiB (85%)
Title                       : Иуда и чёрный мессия / Judas and the Black Messiah (2021) WEB-DL 1080p
Language                    : English
Default                     : Yes
Forced                      : No
Color range                 : Limited
Color primaries             : BT.709
Transfer characteristics    : BT.709
Matrix coefficients         : BT.709
Audio #1
ID                          : 2
Format                      : AC-3
Format/Info                 : Audio Coding 3
Commercial name             : Dolby Digital
Codec ID                    : A_AC3
Duration                    : 2 h 5 min
Bit rate mode               : Constant
Bit rate                    : 640 kb/s
Channel(s)                  : 6 channels
Channel layout              : L R C LFE Ls Rs
Sampling rate               : 48.0 kHz
Frame rate                  : 31.250 FPS (1536 SPF)
Compression mode            : Lossy
Stream size                 : 574 MiB (7%)
Title                       : Профессиональный (многоголосый закадровый) | AMS
Language                    : Russian
Service kind                : Complete Main
Default                     : Yes
Forced                      : Yes
Audio #2
ID                          : 3
Format                      : E-AC-3 JOC
Format/Info                 : Enhanced AC-3 with Joint Object Coding
Commercial name             : Dolby Digital Plus with Dolby Atmos
Codec ID                    : A_EAC3
Duration                    : 2 h 5 min
Bit rate mode               : Constant
Bit rate                    : 768 kb/s
Channel(s)                  : 6 channels
Channel layout              : L R C LFE Ls Rs
Sampling rate               : 48.0 kHz
Frame rate                  : 31.250 FPS (1536 SPF)
Compression mode            : Lossy
Stream size                 : 689 MiB (8%)
Title                       : Английский | English | Atmos
Language                    : English
Service kind                : Complete Main
Default                     : No
Forced                      : No
Complexity index            : 16
Number of dynamic objects   : 15
Bed channel count           : 1 channel
Bed channel configuration   : LFE
Text #1
ID                          : 4
Format                      : UTF-8
Codec ID                    : S_TEXT/UTF8
Codec ID/Info               : UTF-8 Plain Text
Duration                    : 2 h 3 min
Bit rate                    : 69 b/s
Count of elements           : 1855
Stream size                 : 63.0 KiB (0%)
Title                       : Английский (Full)
Language                    : English
Default                     : No
Forced                      : No
Text #2
ID                          : 5
Format                      : UTF-8
Codec ID                    : S_TEXT/UTF8
Codec ID/Info               : UTF-8 Plain Text
Duration                    : 2 h 3 min
Bit rate                    : 79 b/s
Count of elements           : 2102
Stream size                 : 72.1 KiB (0%)
Title                       : Английский (SDH)
Language                    : English
Default                     : No
Forced                      : No

Скриншоты


_________________
Мои раздачи
[Торрент-статистика]
[Профиль]  [ЛС] 
Показать сообщения:    
Ответить на тему

Текущее время: Сегодня 06:29

Часовой пояс: GMT + 4



Вы не можете начинать темы
Вы не можете отвечать на сообщения
Вы не можете редактировать свои сообщения
Вы не можете удалять свои сообщения
Вы не можете голосовать в опросах
Вы не можете прикреплять файлы к сообщениям
Вы не можете скачивать файлы