Брешь / Breach (Джон Суитц / John Suits) [2020, Канада, Фантастика, боевик, ужасы, BDRemux 1080p] Dub (iTunes) + Sub Eng + Original Eng

Ответить на тему
 
Автор
Сообщение

Волк ®

Пол:

Стаж: 9 лет 5 месяцев

Сообщений: 892

Репутация: 333 [+] [-]

Откуда: Армения

Пост 10-Фев-2021 22:43

[Цитировать] 

Брешь / Breach
«В открытом космосе они не одни»
- Страна: Канада
Студия: 308 Ent, Almost Never Films Inc., Aloe Entertainment
Жанр: Фантастика, боевик, ужасы
Год выпуска: 2020
Продолжительность: 01:32:32
Перевод: Профессиональный (дублированный) iTunes
Субтитры: Английские SDH
Оригинальная аудиодорожка: Английский-Режиссер: Джон Суитц / John Suits-В ролях: Коуди Кирсли, Брюс Уиллис, Рэйчел Николс, Кассандра Клементи, Кори Лардж, Томас Джейн, Джонни Месснер, Каллэн Мулвей, Тимоти В. Мёрфи, Йохан Урб, Ральф Мёллер-Описание: 2242 год. Земля обречена. Среди 50 миллионов избранных, летящих к Новой планете, — молодая пара, у которой должен появиться ребенок. Второй пилот космического корабля Клэй Янг еще не знает, что ему предстоит сразиться с космическим злом, готовым превратить корабль в орудие смерти, и перед ним встанет нелегкий выбор: собственная жизнь или спасение человечества.-IMDB | КиноПоиск | Сэмпл- -Премьера в Росcии: 17 декабря 2020, «Парадиз»
Премьера в мире: 18 декабря 2020-Тип релиза: BDRemux 1080p
Контейнер: MKV
Видео: MPEG-4 AVC, 1920x1080, 26.7 Mbit/s, 23.976 fps
Аудио 1: 48 kHz, AC3 Dolby Digital, 3/2 (L,C,R,l,r) + LFE ch, ~384 kbps | |
Аудио 2: 48 kHz, DTS-HD MA, 5.1, (C L R Ls Rs) + LFE ch, ~3 773 Kbps | |-

MediaInfo

Код:
General
Unique ID                   : 174541565843776941396932223895787443462 (0x834F7B9A155C05EA17665ACD305A9506)
Complete name               : E:\Kino\HD\Breach (2020) BDRemux 1080p.mkv
Format                      : Matroska
Format version              : Version 4
File size                   : 20.0 GiB
Duration                    : 1 h 32 min
Overall bit rate mode       : Variable
Overall bit rate            : 30.9 Mb/s
Movie name                  : Брешь | Breach (2020) BDRemux 1080p
Encoded date                : UTC 2021-02-06 20:27:56
Writing application         : mkvmerge v51.0.0 ('I Wish') 64-bit
Writing library             : libebml v1.4.0 + libmatroska v1.6.2
Cover                       : Yes
Attachments                 : cover.png
Video
ID                          : 1
Format                      : AVC
Format/Info                 : Advanced Video Codec
Format profile              : High@L4.1
Format settings             : CABAC / 4 Ref Frames
Format settings, CABAC      : Yes
Format settings, Reference  : 4 frames
Format settings, GOP        : M=3, N=12
Codec ID                    : V_MPEG4/ISO/AVC
Duration                    : 1 h 32 min
Bit rate mode               : Variable
Bit rate                    : 26.7 Mb/s
Maximum bit rate            : 38.0 Mb/s
Width                       : 1 920 pixels
Height                      : 1 080 pixels
Display aspect ratio        : 16:9
Frame rate mode             : Constant
Frame rate                  : 23.976 (24000/1001) FPS
Color space                 : YUV
Chroma subsampling          : 4:2:0
Bit depth                   : 8 bits
Scan type                   : Progressive
Bits/(Pixel*Frame)          : 0.538
Stream size                 : 17.3 GiB (87%)
Title                       : Брешь | Breach | BDRemux 1080p
Language                    : English
Default                     : Yes
Forced                      : No
Audio #1
ID                          : 2
Format                      : AC-3
Format/Info                 : Audio Coding 3
Commercial name             : Dolby Digital
Codec ID                    : A_AC3
Duration                    : 1 h 32 min
Bit rate mode               : Constant
Bit rate                    : 384 kb/s
Channel(s)                  : 6 channels
Channel layout              : L R C LFE Ls Rs
Sampling rate               : 48.0 kHz
Frame rate                  : 31.250 FPS (1536 SPF)
Compression mode            : Lossy
Stream size                 : 254 MiB (1%)
Title                       : Русский | Дублированный | iTunes
Language                    : Russian
Service kind                : Complete Main
Default                     : Yes
Forced                      : Yes
Audio #2
ID                          : 3
Format                      : DTS XLL
Format/Info                 : Digital Theater Systems
Commercial name             : DTS-HD Master Audio
Codec ID                    : A_DTS
Duration                    : 1 h 32 min
Bit rate mode               : Variable
Bit rate                    : 3 773 kb/s
Channel(s)                  : 6 channels
Channel layout              : C L R Ls Rs LFE
Sampling rate               : 48.0 kHz
Frame rate                  : 93.750 FPS (512 SPF)
Bit depth                   : 24 bits
Compression mode            : Lossless
Stream size                 : 2.44 GiB (12%)
Title                       : Английский | DTS-HD Master Audio
Language                    : English
Default                     : No
Forced                      : No
Text
ID                          : 4
Format                      : UTF-8
Codec ID                    : S_TEXT/UTF8
Codec ID/Info               : UTF-8 Plain Text
Duration                    : 1 h 28 min
Bit rate                    : 52 b/s
Count of elements           : 1369
Stream size                 : 34.2 KiB (0%)
Title                       : Английские | SDH |
Language                    : English
Default                     : No
Forced                      : No
Menu
00:00:00.000                : en:Chapter 01
00:06:54.539                : en:Chapter 02
00:14:34.540                : en:Chapter 03
00:23:01.755                : en:Chapter 04
00:31:59.835                : en:Chapter 05
00:41:24.941                : en:Chapter 06
00:50:50.798                : en:Chapter 07
00:57:12.471                : en:Chapter 08
01:04:05.383                : en:Chapter 09
01:12:14.539                : en:Chapter 10
01:21:35.891                : en:Chapter 11
01:29:31.700                : en:Chapter 12

Скриншоты


_________________
Мои раздачи
[Торрент-статистика]
[Профиль]  [ЛС] 
Показать сообщения:    
Ответить на тему

Текущее время: Сегодня 02:46

Часовой пояс: GMT + 4



Вы не можете начинать темы
Вы не можете отвечать на сообщения
Вы не можете редактировать свои сообщения
Вы не можете удалять свои сообщения
Вы не можете голосовать в опросах
Вы не можете прикреплять файлы к сообщениям
Вы не можете скачивать файлы