Палмер / Palmer (Фишер Стивенс / Fisher Stevens) [2021, США, Драма, WEB-DL 1080p] Dub (Apple TV+) + Sub Rus + Original Eng

Ответить на тему
 
Автор
Сообщение

Волк ®

Пол:

Стаж: 9 лет 5 месяцев

Сообщений: 892

Репутация: 333 [+] [-]

Откуда: Армения

Пост 31-Янв-2021 23:37

[Цитировать] 

Палмер / Palmer- Страна: США
Студия: Sidney Kimmel Entertainment, Hercules Film Fund, Rhea Films
Жанр: Драма
Год выпуска: 2021
Продолжительность: 01:50:54
Перевод: Профессиональный (дублированный) Apple TV+
Субтитры: Русские (Full), Украинские (Full), Английские (Full) + SDH
Оригинальная аудиодорожка: Английский-Режиссер: Фишер Стивенс / Fisher Stevens-В ролях: Джастин Тимберлейк, Джуно Темпл, Джун Скуиб, Дин Уинтерс, Алиша Вейнрайт, Винн Эверетт, Райдер Аллен, Дж.Д. Эвермор, Джейк Бреннан, Джесси Бойд,Чармин Ли, Стэйси Дэвис, Стивен Луис Граш, Лэнс Э. Николс, Теодус Крэйн, Николас И. Парсонс-Описание: Выйдя из тюрьмы, бывшая звезда школьного американского футбола Эдди Палмер возвращается в родной городок. Парень надеется наладить свою жизнь, но сталкивается с проблемами прошлого и неожиданно становится наставником мальчика, которого оставила мать.-IMDB | КиноПоиск | Сэмпл-Премьера в мире 29 января 2021-Тип релиза: WEB-DL 1080p
Контейнер: MKV
Видео: MPEG-4 AVC, 1920x800, 10.0 Mbit/s, 23.976 fps, BT.709
Аудио 1: 48 kHz, AC3 Dolby Digital, 3/2 (L, C, R, l, r) + LFE ch, ~448 kbps |
Аудио 2: 48 kHz, E-AC3 Dolby Digital, 3/2 (L, C, R, l, r) + LFE ch, ~768 Kbps | -

MediaInfo

Код:
General
Unique ID                   : 337620651886093906406380642939366498026 (0xFDFF5F51173BAD073F5538051B0B5EEA)
Complete name               : E:\Kino\HD\Palmer 2021 WEB-DL 1080p.mkv
Format                      : Matroska
Format version              : Version 4
File size                   : 8.72 GiB
Duration                    : 1 h 50 min
Overall bit rate            : 11.3 Mb/s
Movie name                  : Палмер | Palmer 2021 WEB-DL 1080p
Encoded date                : UTC 2021-01-31 19:02:57
Writing application         : mkvmerge v51.0.0 ('I Wish') 64-bit
Writing library             : libebml v1.4.0 + libmatroska v1.6.2
Cover                       : Yes
Attachments                 : cover.jpg
Video
ID                          : 1
Format                      : AVC
Format/Info                 : Advanced Video Codec
Format profile              : High@L4
Format settings             : CABAC / 5 Ref Frames
Format settings, CABAC      : Yes
Format settings, Reference  : 5 frames
Codec ID                    : V_MPEG4/ISO/AVC
Duration                    : 1 h 50 min
Bit rate                    : 10.0 Mb/s
Width                       : 1 920 pixels
Height                      : 800 pixels
Display aspect ratio        : 2.40:1
Frame rate mode             : Constant
Frame rate                  : 23.976 (24000/1001) FPS
Color space                 : YUV
Chroma subsampling          : 4:2:0
Bit depth                   : 8 bits
Scan type                   : Progressive
Bits/(Pixel*Frame)          : 0.272
Stream size                 : 7.77 GiB (89%)
Title                       : Палмер | Palmer | 2021
Language                    : English
Default                     : Yes
Forced                      : No
Color range                 : Limited
Color primaries             : BT.709
Transfer characteristics    : BT.709
Matrix coefficients         : BT.709
Audio #1
ID                          : 2
Format                      : AC-3
Format/Info                 : Audio Coding 3
Commercial name             : Dolby Digital
Codec ID                    : A_AC3
Duration                    : 1 h 50 min
Bit rate mode               : Constant
Bit rate                    : 448 kb/s
Channel(s)                  : 6 channels
Channel layout              : L R C LFE Ls Rs
Sampling rate               : 48.0 kHz
Frame rate                  : 31.250 FPS (1536 SPF)
Compression mode            : Lossy
Stream size                 : 355 MiB (4%)
Title                       : Russian | Дублированный  Apple TV+
Language                    : Russian
Service kind                : Complete Main
Default                     : Yes
Forced                      : Yes
Audio #2
ID                          : 3
Format                      : E-AC-3 JOC
Format/Info                 : Enhanced AC-3 with Joint Object Coding
Commercial name             : Dolby Digital Plus with Dolby Atmos
Codec ID                    : A_EAC3
Duration                    : 1 h 50 min
Bit rate mode               : Constant
Bit rate                    : 768 kb/s
Channel(s)                  : 6 channels
Channel layout              : L R C LFE Ls Rs
Sampling rate               : 48.0 kHz
Frame rate                  : 31.250 FPS (1536 SPF)
Compression mode            : Lossy
Stream size                 : 609 MiB (7%)
Title                       : English | Английский
Language                    : English
Service kind                : Complete Main
Default                     : No
Forced                      : No
Complexity index            : 16
Number of dynamic objects   : 15
Bed channel count           : 1 channel
Bed channel configuration   : LFE
Text #1
ID                          : 4
Format                      : UTF-8
Codec ID                    : S_TEXT/UTF8
Codec ID/Info               : UTF-8 Plain Text
Duration                    : 1 h 49 min
Bit rate                    : 84 b/s
Count of elements           : 1499
Stream size                 : 68.0 KiB (0%)
Title                       : Russian | Русские (Full)
Language                    : Russian
Default                     : No
Forced                      : No
Text #2
ID                          : 5
Format                      : UTF-8
Codec ID                    : S_TEXT/UTF8
Codec ID/Info               : UTF-8 Plain Text
Duration                    : 1 h 49 min
Bit rate                    : 80 b/s
Count of elements           : 1499
Stream size                 : 64.3 KiB (0%)
Title                       : Ukrainian | Украинские (Full)
Language                    : Ukrainian
Default                     : No
Forced                      : No
Text #3
ID                          : 6
Format                      : UTF-8
Codec ID                    : S_TEXT/UTF8
Codec ID/Info               : UTF-8 Plain Text
Duration                    : 1 h 43 min
Bit rate                    : 58 b/s
Count of elements           : 1472
Stream size                 : 44.8 KiB (0%)
Title                       : English | Английские (Full)
Language                    : English
Default                     : No
Forced                      : No
Text #4
ID                          : 7
Format                      : UTF-8
Codec ID                    : S_TEXT/UTF8
Codec ID/Info               : UTF-8 Plain Text
Duration                    : 1 h 47 min
Bit rate                    : 67 b/s
Count of elements           : 1725
Stream size                 : 53.0 KiB (0%)
Title                       : English | Английские [SDH]
Language                    : English
Default                     : No
Forced                      : No

Скриншоты


_________________
Мои раздачи
[Торрент-статистика]
[Профиль]  [ЛС] 
Показать сообщения:    
Ответить на тему

Текущее время: Сегодня 10:01

Часовой пояс: GMT + 4



Вы не можете начинать темы
Вы не можете отвечать на сообщения
Вы не можете редактировать свои сообщения
Вы не можете удалять свои сообщения
Вы не можете голосовать в опросах
Вы не можете прикреплять файлы к сообщениям
Вы не можете скачивать файлы