Бесконечная ночь / Hard Night Falling (Джорджо Бруно / Giorgio Bruno) [2019, Италия, США, Боевик, триллер, драма, криминал, BDRemux 1080p] MVO (iTunes) + Sub Eng + Original Eng

Ответить на тему
 
Автор
Сообщение

Волк ®

Пол:

Стаж: 9 лет 5 месяцев

Сообщений: 892

Репутация: 333 [+] [-]

Откуда: Армения

Пост 24-Янв-2021 23:43

[Цитировать] 

Бесконечная ночь / Hard Night Falling
«His Family is More Important Than His Fortune»
- Страна: Италия, США
Студия: Sun Film Group, West Arts, Explorer Entertainment
Жанр: Боевик, триллер, драма, криминал
Год выпуска: 2019
Продолжительность: 01:25:36
Перевод: Профессиональный (многоголосый закадровый) iTunes
Субтитры: Английские SDH
Оригинальная аудиодорожка: Английский-Режиссер: Джорджо Бруно / Giorgio Bruno-В ролях: Дольф Лундгрен, Хал Яманоути, Наталия Берн, Марио Опинато, Brice Martinet, Андреа Скардуцио, Синне Муцаэрс, Ральф Палка, Рубен Ригильо, Джиоиа Викари-Описание: Криминальный авторитет Горо планирует ограбить семью Россини. Но Горо и его головорезы не знают, что у Россини в гостях опытный агент, который борется не только за спасение заложников и добычи, а и за свою семью.-IMDB | КиноПоиск | Сэмпл- -Тип релиза: BDRemux 1080p
Контейнер: MKV
Видео: MPEG-4 AVC, 1920x1080, 23.976 fps, 28.8 Mbit/s, BT.709
Аудио 1: 48 kHz, AC3 Dolby Digital, 3/2 (L,C,R,l,r) + LFE ch, ~384 kbps | iTunes | RUS |
Аудио 2: 48 kHz, AC3 Dolby Digital, 3/2 (L,C,R,l,r) + LFE ch, ~448 kbps | Оригинал | ENG |
Аудио 3: 48 kHz, DTS-HD MA, 3/2 (L,C,R,l,r) + LFE ch, ~2648 Kbps | Оригинал | ENG |
-

MediaInfo

Код:
General
Unique ID                   : 181887086472278706316084524677492383873 (0x88D62DBAEBA9038B696FD931BB602081)
Complete name               : E:\Kino\Hard Night Falling 2019 BDRemux 1080p.mkv
Format                      : Matroska
Format version              : Version 4
File size                   : 19.3 GiB
Duration                    : 1 h 25 min
Overall bit rate mode       : Variable
Overall bit rate            : 32.2 Mb/s
Movie name                  : Hard Night Falling 2019 BDRemux
Encoded date                : UTC 2021-01-24 17:49:24
Writing application         : mkvmerge v51.0.0 ('I Wish') 64-bit
Writing library             : libebml v1.4.0 + libmatroska v1.6.2
Cover                       : Yes
Attachments                 : cover.png
Video
ID                          : 1
Format                      : AVC
Format/Info                 : Advanced Video Codec
Format profile              : High@L4.1
Format settings             : CABAC / 3 Ref Frames
Format settings, CABAC      : Yes
Format settings, Reference  : 3 frames
Codec ID                    : V_MPEG4/ISO/AVC
Duration                    : 1 h 25 min
Bit rate mode               : Variable
Bit rate                    : 28.8 Mb/s
Maximum bit rate            : 40.0 Mb/s
Width                       : 1 920 pixels
Height                      : 1 080 pixels
Display aspect ratio        : 16:9
Frame rate mode             : Constant
Frame rate                  : 23.976 (24000/1001) FPS
Color space                 : YUV
Chroma subsampling          : 4:2:0
Bit depth                   : 8 bits
Scan type                   : Progressive
Bits/(Pixel*Frame)          : 0.579
Stream size                 : 17.2 GiB (89%)
Title                       : Бесконечная ночь | Hard Night Falling
Writing library             : x264 core 148 r2638 7599210
Encoding settings           : cabac=1 / ref=4 / deblock=1:-1:-1 / analyse=0x3:0x133 / me=umh / subme=10 / psy=1 / psy_rd=1.00:0.15 / mixed_ref=1 / me_range=24 / chroma_me=1 / trellis=2 / 8x8dct=1 / cqm=0 / deadzone=21,11 / fast_pskip=1 / chroma_qp_offset=-3 / threads=12 / lookahead_threads=1 / sliced_threads=0 / slices=4 / nr=0 / decimate=1 / interlaced=0 / bluray_compat=1 / constrained_intra=0 / bframes=3 / b_pyramid=1 / b_adapt=2 / b_bias=0 / direct=3 / weightb=1 / open_gop=1 / weightp=1 / keyint=23 / keyint_min=1 / scenecut=40 / intra_refresh=0 / rc_lookahead=23 / rc=2pass / mbtree=1 / bitrate=28800 / ratetol=1.0 / qcomp=0.60 / qpmin=0 / qpmax=69 / qpstep=4 / cplxblur=20.0 / qblur=0.5 / vbv_maxrate=40000 / vbv_bufsize=30000 / nal_hrd=vbr / filler=0 / ip_ratio=1.40 / aq=1:1.00
Language                    : English
Default                     : Yes
Forced                      : No
Color range                 : Limited
Color primaries             : BT.709
Transfer characteristics    : BT.709
Matrix coefficients         : BT.709
Audio #1
ID                          : 2
Format                      : AC-3
Format/Info                 : Audio Coding 3
Commercial name             : Dolby Digital
Codec ID                    : A_AC3
Duration                    : 1 h 25 min
Bit rate mode               : Constant
Bit rate                    : 384 kb/s
Channel(s)                  : 6 channels
Channel layout              : L R C LFE Ls Rs
Sampling rate               : 48.0 kHz
Frame rate                  : 31.250 FPS (1536 SPF)
Compression mode            : Lossy
Stream size                 : 235 MiB (1%)
Title                       : Многоголосый | iTunes
Language                    : Russian
Service kind                : Complete Main
Default                     : Yes
Forced                      : Yes
Audio #2
ID                          : 3
Format                      : AC-3
Format/Info                 : Audio Coding 3
Commercial name             : Dolby Digital
Codec ID                    : A_AC3
Duration                    : 1 h 25 min
Bit rate mode               : Constant
Bit rate                    : 448 kb/s
Channel(s)                  : 6 channels
Channel layout              : L R C LFE Ls Rs
Sampling rate               : 48.0 kHz
Frame rate                  : 31.250 FPS (1536 SPF)
Compression mode            : Lossy
Stream size                 : 274 MiB (1%)
Title                       : Английский | Original
Language                    : English
Service kind                : Complete Main
Default                     : No
Forced                      : No
Audio #3
ID                          : 4
Format                      : DTS XLL
Format/Info                 : Digital Theater Systems
Commercial name             : DTS-HD Master Audio
Codec ID                    : A_DTS
Duration                    : 1 h 25 min
Bit rate mode               : Variable
Bit rate                    : 2 648 kb/s
Channel(s)                  : 6 channels
Channel layout              : C L R Ls Rs LFE
Sampling rate               : 48.0 kHz
Frame rate                  : 93.750 FPS (512 SPF)
Bit depth                   : 16 bits
Compression mode            : Lossless
Stream size                 : 1.58 GiB (8%)
Title                       : Английский | Original DTS
Language                    : English
Default                     : No
Forced                      : No
Text
ID                          : 5
Format                      : UTF-8
Codec ID                    : S_TEXT/UTF8
Codec ID/Info               : UTF-8 Plain Text
Duration                    : 1 h 22 min
Bit rate                    : 26 b/s
Count of elements           : 712
Stream size                 : 16.3 KiB (0%)
Title                       : Английские | SDH
Language                    : English
Default                     : No
Forced                      : No
Menu
00:00:00.000                : en:Chapter 01
00:07:19.606                : en:Chapter 02
00:11:56.174                : en:Chapter 03
00:22:09.495                : en:Chapter 04
00:30:02.551                : en:Chapter 05
00:35:04.602                : en:Chapter 06
00:42:37.430                : en:Chapter 07
00:52:26.977                : en:Chapter 08
00:59:50.629                : en:Chapter 09
01:06:44.250                : en:Chapter 10
01:13:45.796                : en:Chapter 11
01:20:15.019                : en:Chapter 12

Скриншоты


_________________
Мои раздачи
[Торрент-статистика]
[Профиль]  [ЛС] 
Показать сообщения:    
Ответить на тему

Текущее время: Сегодня 06:38

Часовой пояс: GMT + 4



Вы не можете начинать темы
Вы не можете отвечать на сообщения
Вы не можете редактировать свои сообщения
Вы не можете удалять свои сообщения
Вы не можете голосовать в опросах
Вы не можете прикреплять файлы к сообщениям
Вы не можете скачивать файлы