Смертельная зона / Outside the Wire (Микаэль Хофстрём / Mikael Håfström) [2021, США, Венгрия, Фантастика, фэнтези, боевик, приключения, WEB-DL 1080p] Dub (VSI Moscow) + Dub (VSI Moscow Украинский) + Sub Rus + Original Eng

Ответить на тему
 
Автор
Сообщение

Волк ®

Пол:

Стаж: 9 лет 5 месяцев

Сообщений: 892

Репутация: 333 [+] [-]

Откуда: Армения

Пост 22-Янв-2021 10:09

[Цитировать] 

Смертельная зона / Outside the Wire«Defiant by design»- Страна: США, Венгрия
Студия: 42, Automatik Entertainment, Inspire Entertainment, Leeding Media, NetFlix, Pioneer Stilking Films
Жанр: Фантастика, фэнтези, боевик, приключения
Год выпуска: 2021
Продолжительность: 01:55:52
Перевод 1: Профессиональный (дублированный) VSI Moscow Русский
Перевод 2: Профессиональный (дублированный) VSI Moscow Украинский
Субтитры: Английские (SDH)
Оригинальная аудиодорожка: Английский-Режиссер: Микаэль Хофстрём / Mikael Håfström-В ролях: Энтони Маки, Демсон Идрис, Эмили Бичем, Пилу Асбек, Майкл Келли, Кристина Тонтери-Янг, Бобби Локвуд, Энцо Чиленти, Генри Гаррет, Велибор Топич-Описание: В будущем война ведётся с помощью пилотируемых дронов. Однажды пилот дрона вынужден отправиться в зону военных действий, где вместе с андроидом должен предотвратить ядерный взрыв.-IMDB | КиноПоиск | Сэмпл-Тип релиза: WEB-DL 1080p
Контейнер: MKV
Видео: MPEG-4 AVC, 1920x1080, 24.000 fps, 2485 Kbps, 0.050 bit/pixel
Аудио 1: 48 kHz, E-AC3 Dolby Digital, 3/2 (L,C,R,l,r) + LFE ch, ~640 kbps | | RUS
Аудио 2: 48 kHz, E-AC3 Dolby Digital, 3/2 (L,C,R,l,r) + LFE ch, ~640 kbps | | UKR
Аудио 3: 48 kHz, E-AC3 Dolby Digital, 3/2 (L,C,R,l,r) + LFE ch, ~768 kbps | | ENG
Аудио 4: 48 kHz, E-AC3 Dolby Digital, 3/2 (L,C,R,l,r) + LFE ch, ~640 kbps | | FRE
Аудио 5: 48 kHz, E-AC3 Dolby Digital, 3/2 (L,C,R,l,r) + LFE ch, ~640 kbps | | GER
Аудио 6: 48 kHz, E-AC3 Dolby Digital, 3/2 (L,C,R,l,r) + LFE ch, ~640 kbps | | ITA
Аудио 7: 48 kHz, E-AC3 Dolby Digital, 3/2 (L,C,R,l,r) + LFE ch, ~640 kbps | | SPA-Формат субтитров: (Full) (Forced) (SDH)-

Субтитры

[size=14]| Russian (Full) |
| Ukrainian (Full) |
| French (Full) |
| German (Full) |
| Italian (Full) |
| Spanish (Full) |
| Finnish (Full) |
| Polish (Full) |
| Portuguese (Full) |
| Swedish (Full) |-| Russian (Forced) |
| Ukrainian (Forced) |
| French (Forced) |
| German (Forced) |
| Italian (Forced) |
| Spanish (Forced) |

MediaInfo

Код:
General
Complete name               : E:\Kino\Outside the Wire.2021.WEB-DL.1080p.mkv
Format                      : Matroska
Format version              : Version 4
File size                   : 5.75 GiB
Duration                    : 1 h 55 min
Overall bit rate mode       : Variable
Overall bit rate            : 7 098 kb/s
Encoded date                : UTC 2021-01-20 20:11:30
Writing application         : mkvmerge v51.0.0 ('I Wish') 64-bit
Writing library             : libebml v1.4.0 + libmatroska v1.6.2
Cover                       : Yes
Attachments                 : cover.jpg
Video
ID                          : 1
Format                      : AVC
Format/Info                 : Advanced Video Codec
Format profile              : Main@L4
Format settings             : CABAC / 3 Ref Frames
Format settings, CABAC      : Yes
Format settings, Reference  : 3 frames
Codec ID                    : V_MPEG4/ISO/AVC
Duration                    : 1 h 55 min
Bit rate mode               : Variable
Bit rate                    : 2 485 kb/s
Nominal bit rate            : 3 160 kb/s
Maximum bit rate            : 4 740 kb/s
Width                       : 1 920 pixels
Height                      : 1 080 pixels
Display aspect ratio        : 16:9
Frame rate mode             : Constant
Frame rate                  : 24.000 FPS
Color space                 : YUV
Chroma subsampling          : 4:2:0
Bit depth                   : 8 bits
Scan type                   : Progressive
Bits/(Pixel*Frame)          : 0.050
Stream size                 : 2.01 GiB (35%)
Title                       : Смертельная зона | Outside the Wire | Rutracker.org
Writing library             : x264 core 148 r2722 1b0121b
Encoding settings           : cabac=1 / ref=3 / deblock=1:0:0 / analyse=0x1:0x111 / me=umh / subme=10 / psy=1 / psy_rd=1.00:0.00 / mixed_ref=1 / me_range=24 / chroma_me=1 / trellis=2 / 8x8dct=0 / cqm=0 / deadzone=21,11 / fast_pskip=1 / chroma_qp_offset=-2 / threads=6 / lookahead_threads=1 / sliced_threads=0 / nr=0 / decimate=1 / interlaced=0 / bluray_compat=0 / stitchable=1 / constrained_intra=0 / bframes=2 / b_pyramid=0 / b_adapt=2 / b_bias=0 / direct=3 / weightb=1 / open_gop=0 / weightp=2 / keyint=250 / keyint_min=24 / scenecut=0 / intra_refresh=0 / rc_lookahead=48 / rc=2pass / mbtree=1 / bitrate=3160 / ratetol=1.0 / qcomp=0.50 / qpmin=6 / qpmax=51 / qpstep=4 / cplxblur=20.0 / qblur=0.5 / vbv_maxrate=4740 / vbv_bufsize=6320 / nal_hrd=vbr / filler=0 / ip_ratio=1.40 / aq=1:1.00
Language                    : English
Default                     : Yes
Forced                      : No
Audio #1
ID                          : 2
Format                      : E-AC-3
Format/Info                 : Enhanced AC-3
Commercial name             : Dolby Digital Plus
Codec ID                    : A_EAC3
Duration                    : 1 h 55 min
Bit rate mode               : Constant
Bit rate                    : 640 kb/s
Channel(s)                  : 6 channels
Channel layout              : L R C LFE Ls Rs
Sampling rate               : 48.0 kHz
Frame rate                  : 31.250 FPS (1536 SPF)
Compression mode            : Lossy
Stream size                 : 530 MiB (9%)
Title                       : (Дублированный) VSI Moscow
Language                    : Russian
Service kind                : Complete Main
Default                     : Yes
Forced                      : No
Audio #2
ID                          : 3
Format                      : E-AC-3
Format/Info                 : Enhanced AC-3
Commercial name             : Dolby Digital Plus
Codec ID                    : A_EAC3
Duration                    : 1 h 55 min
Bit rate mode               : Constant
Bit rate                    : 640 kb/s
Channel(s)                  : 6 channels
Channel layout              : L R C LFE Ls Rs
Sampling rate               : 48.0 kHz
Frame rate                  : 31.250 FPS (1536 SPF)
Compression mode            : Lossy
Stream size                 : 530 MiB (9%)
Title                       : (Дублированный) VSI Moscow
Language                    : Ukrainian
Service kind                : Complete Main
Default                     : No
Forced                      : No
Audio #3
ID                          : 4
Format                      : E-AC-3 JOC
Format/Info                 : Enhanced AC-3 with Joint Object Coding
Commercial name             : Dolby Digital Plus with Dolby Atmos
Codec ID                    : A_EAC3
Duration                    : 1 h 55 min
Bit rate mode               : Constant
Bit rate                    : 768 kb/s
Channel(s)                  : 6 channels
Channel layout              : L R C LFE Ls Rs
Sampling rate               : 48.0 kHz
Frame rate                  : 31.250 FPS (1536 SPF)
Compression mode            : Lossy
Stream size                 : 637 MiB (11%)
Title                       : Английский
Language                    : English
Service kind                : Complete Main
Default                     : No
Forced                      : No
Complexity index            : 16
Number of dynamic objects   : 15
Bed channel count           : 1 channel
Bed channel configuration   : LFE
Audio #4
ID                          : 5
Format                      : E-AC-3
Format/Info                 : Enhanced AC-3
Commercial name             : Dolby Digital Plus
Codec ID                    : A_EAC3
Duration                    : 1 h 55 min
Bit rate mode               : Constant
Bit rate                    : 640 kb/s
Channel(s)                  : 6 channels
Channel layout              : L R C LFE Ls Rs
Sampling rate               : 48.0 kHz
Frame rate                  : 31.250 FPS (1536 SPF)
Compression mode            : Lossy
Stream size                 : 530 MiB (9%)
Title                       : Французский
Language                    : French
Service kind                : Complete Main
Default                     : No
Forced                      : No
Audio #5
ID                          : 6
Format                      : E-AC-3
Format/Info                 : Enhanced AC-3
Commercial name             : Dolby Digital Plus
Codec ID                    : A_EAC3
Duration                    : 1 h 55 min
Bit rate mode               : Constant
Bit rate                    : 640 kb/s
Channel(s)                  : 6 channels
Channel layout              : L R C LFE Ls Rs
Sampling rate               : 48.0 kHz
Frame rate                  : 31.250 FPS (1536 SPF)
Compression mode            : Lossy
Stream size                 : 530 MiB (9%)
Title                       : Немецкий
Language                    : German
Service kind                : Complete Main
Default                     : No
Forced                      : No
Audio #6
ID                          : 7
Format                      : E-AC-3
Format/Info                 : Enhanced AC-3
Commercial name             : Dolby Digital Plus
Codec ID                    : A_EAC3
Duration                    : 1 h 55 min
Bit rate mode               : Constant
Bit rate                    : 640 kb/s
Channel(s)                  : 6 channels
Channel layout              : L R C LFE Ls Rs
Sampling rate               : 48.0 kHz
Frame rate                  : 31.250 FPS (1536 SPF)
Compression mode            : Lossy
Stream size                 : 530 MiB (9%)
Title                       : Итальянский
Language                    : Italian
Service kind                : Complete Main
Default                     : No
Forced                      : No
Audio #7
ID                          : 8
Format                      : E-AC-3
Format/Info                 : Enhanced AC-3
Commercial name             : Dolby Digital Plus
Codec ID                    : A_EAC3
Duration                    : 1 h 55 min
Bit rate mode               : Constant
Bit rate                    : 640 kb/s
Channel(s)                  : 6 channels
Channel layout              : L R C LFE Ls Rs
Sampling rate               : 48.0 kHz
Frame rate                  : 31.250 FPS (1536 SPF)
Compression mode            : Lossy
Stream size                 : 530 MiB (9%)
Title                       : Испанский
Language                    : Spanish
Service kind                : Complete Main
Default                     : No
Forced                      : No
Text #1
ID                          : 9
Format                      : UTF-8
Codec ID                    : S_TEXT/UTF8
Codec ID/Info               : UTF-8 Plain Text
Duration                    : 1 h 45 min
Bit rate                    : 64 b/s
Count of elements           : 1651
Stream size                 : 49.7 KiB (0%)
Title                       : Английские | English (SDH)
Language                    : English
Default                     : Yes
Forced                      : No
Text #2
ID                          : 10
Format                      : UTF-8
Codec ID                    : S_TEXT/UTF8
Codec ID/Info               : UTF-8 Plain Text
Duration                    : 1 h 53 min
Bit rate                    : 73 b/s
Count of elements           : 1220
Stream size                 : 61.3 KiB (0%)
Title                       : Русские | Russian (Full)
Language                    : Russian
Default                     : No
Forced                      : No
Text #3
ID                          : 11
Format                      : UTF-8
Codec ID                    : S_TEXT/UTF8
Codec ID/Info               : UTF-8 Plain Text
Duration                    : 1 h 53 min
Bit rate                    : 1 b/s
Count of elements           : 29
Stream size                 : 1.27 KiB (0%)
Title                       : Русские | Russian (Forced)
Language                    : Russian
Default                     : No
Forced                      : No
Text #4
ID                          : 12
Format                      : UTF-8
Codec ID                    : S_TEXT/UTF8
Codec ID/Info               : UTF-8 Plain Text
Duration                    : 1 h 53 min
Bit rate                    : 73 b/s
Count of elements           : 1265
Stream size                 : 61.6 KiB (0%)
Title                       : Украинские | Ukrainian (Full)
Language                    : Ukrainian
Default                     : No
Forced                      : No
Text #5
ID                          : 13
Format                      : UTF-8
Codec ID                    : S_TEXT/UTF8
Codec ID/Info               : UTF-8 Plain Text
Duration                    : 1 h 53 min
Bit rate                    : 1 b/s
Count of elements           : 28
Stream size                 : 1.23 KiB (0%)
Title                       : Украинские | Ukrainian (Forced)
Language                    : Ukrainian
Default                     : No
Forced                      : No
Text #6
ID                          : 14
Format                      : UTF-8
Codec ID                    : S_TEXT/UTF8
Codec ID/Info               : UTF-8 Plain Text
Duration                    : 1 h 53 min
Bit rate                    : 44 b/s
Count of elements           : 1257
Stream size                 : 37.3 KiB (0%)
Title                       : Французские | French (Full)
Language                    : French
Default                     : No
Forced                      : No
Text #7
ID                          : 15
Format                      : UTF-8
Codec ID                    : S_TEXT/UTF8
Codec ID/Info               : UTF-8 Plain Text
Duration                    : 1 h 53 min
Bit rate                    : 0 b/s
Count of elements           : 26
Stream size                 : 765 Bytes (0%)
Title                       : Французские | French (Forced)
Language                    : French
Default                     : No
Forced                      : No
Text #8
ID                          : 16
Format                      : UTF-8
Codec ID                    : S_TEXT/UTF8
Codec ID/Info               : UTF-8 Plain Text
Duration                    : 1 h 53 min
Bit rate                    : 44 b/s
Count of elements           : 1176
Stream size                 : 36.9 KiB (0%)
Title                       : Немецкие | German (Full)
Language                    : German
Default                     : No
Forced                      : No
Text #9
ID                          : 17
Format                      : UTF-8
Codec ID                    : S_TEXT/UTF8
Codec ID/Info               : UTF-8 Plain Text
Duration                    : 1 h 53 min
Bit rate                    : 0 b/s
Count of elements           : 26
Stream size                 : 705 Bytes (0%)
Title                       : Немецкие German (Forced)
Language                    : German
Default                     : No
Forced                      : No
Text #10
ID                          : 18
Format                      : UTF-8
Codec ID                    : S_TEXT/UTF8
Codec ID/Info               : UTF-8 Plain Text
Duration                    : 1 h 53 min
Bit rate                    : 42 b/s
Count of elements           : 1181
Stream size                 : 35.4 KiB (0%)
Title                       : Итальянские | Italian (Full)
Language                    : Italian
Default                     : No
Forced                      : No
Text #11
ID                          : 19
Format                      : UTF-8
Codec ID                    : S_TEXT/UTF8
Codec ID/Info               : UTF-8 Plain Text
Duration                    : 1 h 53 min
Bit rate                    : 0 b/s
Count of elements           : 27
Stream size                 : 744 Bytes (0%)
Title                       : Итальянские | Italian (Forced)
Language                    : Italian
Default                     : No
Forced                      : No
Text #12
ID                          : 20
Format                      : UTF-8
Codec ID                    : S_TEXT/UTF8
Codec ID/Info               : UTF-8 Plain Text
Duration                    : 1 h 53 min
Bit rate                    : 44 b/s
Count of elements           : 1198
Stream size                 : 37.0 KiB (0%)
Title                       : Испанские | Spanish (Full)
Language                    : Spanish
Default                     : No
Forced                      : No
Text #13
ID                          : 21
Format                      : UTF-8
Codec ID                    : S_TEXT/UTF8
Codec ID/Info               : UTF-8 Plain Text
Duration                    : 1 h 53 min
Bit rate                    : 0 b/s
Count of elements           : 26
Stream size                 : 771 Bytes (0%)
Title                       : Испанские | Spanish (Forced)
Language                    : Spanish
Default                     : No
Forced                      : No
Text #14
ID                          : 22
Format                      : UTF-8
Codec ID                    : S_TEXT/UTF8
Codec ID/Info               : UTF-8 Plain Text
Duration                    : 1 h 53 min
Bit rate                    : 44 b/s
Count of elements           : 1128
Stream size                 : 36.8 KiB (0%)
Title                       : Финские | Finnish (Full)
Language                    : Finnish
Default                     : No
Forced                      : No
Text #15
ID                          : 23
Format                      : UTF-8
Codec ID                    : S_TEXT/UTF8
Codec ID/Info               : UTF-8 Plain Text
Duration                    : 1 h 53 min
Bit rate                    : 38 b/s
Count of elements           : 1230
Stream size                 : 32.3 KiB (0%)
Title                       : Польские | Polish (Full)
Language                    : Polish
Default                     : No
Forced                      : No
Text #16
ID                          : 24
Format                      : UTF-8
Codec ID                    : S_TEXT/UTF8
Codec ID/Info               : UTF-8 Plain Text
Duration                    : 1 h 53 min
Bit rate                    : 43 b/s
Count of elements           : 1205
Stream size                 : 36.0 KiB (0%)
Title                       : Португальские | Portuguese (Full)
Language                    : Portuguese
Default                     : No
Forced                      : No
Text #17
ID                          : 25
Format                      : UTF-8
Codec ID                    : S_TEXT/UTF8
Codec ID/Info               : UTF-8 Plain Text
Duration                    : 1 h 53 min
Bit rate                    : 42 b/s
Count of elements           : 1141
Stream size                 : 35.4 KiB (0%)
Title                       : Шведские | Swedish (Full)
Language                    : Swedish
Default                     : No
Forced                      : No

Скриншоты


_________________
Мои раздачи
[Торрент-статистика]
[Профиль]  [ЛС] 
Показать сообщения:    
Ответить на тему

Текущее время: Сегодня 03:58

Часовой пояс: GMT + 4



Вы не можете начинать темы
Вы не можете отвечать на сообщения
Вы не можете редактировать свои сообщения
Вы не можете удалять свои сообщения
Вы не можете голосовать в опросах
Вы не можете прикреплять файлы к сообщениям
Вы не можете скачивать файлы