Смертельная зона / Outside the Wire (Микаэль Хофстрём / Mikael Håfström) [2021, США, Венгрия, фантастика, фэнтези, боевик, приключения, WEB-DL 1080p HDR] Dub + Original (Eng) + Sub (Rus, Eng)

Ответить на тему
 
Автор
Сообщение

Волк ®

Пол:

Стаж: 9 лет 5 месяцев

Сообщений: 892

Репутация: 333 [+] [-]

Откуда: Армения

Пост 16-Янв-2021 23:11

[Цитировать] 

Смертельная зона / Outside the Wire- Название: Смертельная зона
Оригинальное название: Outside the Wire
Год выхода: 2021
Жанр: Фантастика, фэнтези, боевик, приключения
Страна: США, Венгрия
Студия: 42, Automatik Entertainment, Inspire Entertainment, Leeding Media, NetFlix, Pioneer Stilking Films
Продолжительность: 01:55:52
Перевод: Дублированный | Netflix-Режиссер: Микаэль Хофстрём-В ролях: Энтони Маки, Демсон Идрис, Эмили Бичем, Пилу Асбек, Майкл Келли, Кристина Тонтери-Янг, Бобби Локвуд, Энцо Чиленти, Генри Гаррет, Велибор Топич-

-О фильме: В будущем война ведётся с помощью пилотируемых дронов. Однажды пилот дрона вынужден отправиться в зону военных действий, где вместе с андроидом должен предотвратить ядерный взрыв.-Качество: WEB-DL 1080p
Видео: MPEG-4 AVC, 1920x1080, 2485 Kbit/s, 24.000 fps
Аудио 01: 48 kHz, E-AC3, 5.1, 640 Kbps | Netflix | RUS |
Аудио 02: 48 kHz, AC3, 5.1, 640 Kbps | Netflix | RUS |
Аудио 03: 48 kHz, E-AC3, 5.1, 640 Kbps | Netflix | UKR |
Аудио 04: 48 kHz, E-AC3+Atmos, 5.1, 768 Kbps | Оригинал | ENG |
Аудио 05: 48 kHz, AC3, 5.1, 640 Kbps | Оригинал | ENG |
Аудио 06: 48 kHz, E-AC3, 5.1, 640 Kbps | Оригинал | FRE |
Аудио 07: 48 kHz, E-AC3, 5.1, 640 Kbps | Оригинал | GER |
Аудио 08: 48 kHz, E-AC3, 5.1, 640 Kbps | Оригинал | ITA |
Аудио 09: 48 kHz, E-AC3, 5.1, 640 Kbps | Оригинал | SPA |
Аудио 10: 48 kHz, E-AC3, 5.1, 640 Kbps | Оригинал | POR | -Субтитры: Русские (Forced, full), украинские (Forced, full), (французские, немецкие, итальянские, испанские, португальские, английские (Forced, full)
-

Скриншоты

Mediainfo

Код:
General
Unique ID: 216455480181155724512419142883873018612 (0xA2D7CF209274224CFCF3CD9256E252F4)
Complete name: E:\VideoFirst\1\Outside.the.Wire.2021.NF.WEB-DL.1080p.seleZen.mkv
Format: Matroska
Format version: Version 4
File size: 7.30 GiB
Duration: 1 h 55 min
Overall bit rate mode: Variable
Overall bit rate: 9 019 kb/s
Movie name: Outside the Wire 2021 from seleZen
Encoded date: UTC 2021-01-16 02:52:28
Writing application: mkvmerge v40.0.0 ('Old Town Road + Pony') 64-bit
Writing library: libebml v1.3.9 + libmatroska v1.5.2
Video
ID: 1
Format: AVC
Format/Info: Advanced Video Codec
Format profile: Main@L4
Format settings: CABAC / 3 Ref Frames
Format settings, CABAC: Yes
Format settings, Reference: 3 frames
Codec ID: V_MPEG4/ISO/AVC
Duration: 1 h 55 min
Bit rate mode: Variable
Bit rate: 2 485 kb/s
Nominal bit rate: 3 160 kb/s
Maximum bit rate: 4 740 kb/s
Width: 1 920 pixels
Height: 1 080 pixels
Display aspect ratio: 16:9
Frame rate mode: Constant
Frame rate: 24.000 FPS
Color space: YUV
Chroma subsampling: 4:2:0
Bit depth: 8 bits
Scan type: Progressive
Bits/(Pixel*Frame): 0.050
Stream size: 2.01 GiB (28%)
Writing library: x264 core 148 r2722 1b0121b
Encoding settings: cabac=1 / ref=3 / deblock=1:0:0 / analyse=0x1:0x111 / me=umh / subme=10 / psy=1 / psy_rd=1.00:0.00 / mixed_ref=1 / me_range=24 / chroma_me=1 / trellis=2 / 8x8dct=0 / cqm=0 / deadzone=21, 11 / fast_pskip=1 / chroma_qp_offset=-2 / threads=6 / lookahead_threads=1 / sliced_threads=0 / nr=0 / decimate=1 / interlaced=0 / bluray_compat=0 / stitchable=1 / constrained_intra=0 / bframes=2 / b_pyramid=0 / b_adapt=2 / b_bias=0 / direct=3 / weightb=1 / open_gop=0 / weightp=2 / keyint=250 / keyint_min=24 / scenecut=0 / intra_refresh=0 / rc_lookahead=48 / rc=2pass / mbtree=1 / bitrate=3160 / ratetol=1.0 / qcomp=0.50 / qpmin=6 / qpmax=51 / qpstep=4 / cplxblur=20.0 / qblur=0.5 / vbv_maxrate=4740 / vbv_bufsize=6320 / nal_hrd=vbr / filler=0 / ip_ratio=1.40 / aq=1:1.00
Language: English
Default: Yes
Forced: No
Audio #1
ID: 2
Format: E-AC-3
Format/Info: Enhanced AC-3
Commercial name: Dolby Digital Plus
Codec ID: A_EAC3
Duration: 1 h 55 min
Bit rate mode: Constant
Bit rate: 640 kb/s
Channel(s): 6 channels
Channel layout: L R C LFE Ls Rs
Sampling rate: 48.0 kHz
Frame rate: 31.250 FPS (1536 SPF)
Compression mode: Lossy
Stream size: 530 MiB (7%)
Title: Dub [Netflix]
Language: Russian
Service kind: Complete Main
Default: Yes
Forced: Yes
Audio #2
ID: 3
Format: AC-3
Format/Info: Audio Coding 3
Commercial name: Dolby Digital
Codec ID: A_AC3
Duration: 1 h 55 min
Bit rate mode: Constant
Bit rate: 640 kb/s
Channel(s): 6 channels
Channel layout: L R C LFE Ls Rs
Sampling rate: 48.0 kHz
Frame rate: 31.250 FPS (1536 SPF)
Compression mode: Lossy
Stream size: 530 MiB (7%)
Title: Dub [Netflix]
Language: Russian
Service kind: Complete Main
Default: No
Forced: No
Audio #3
ID: 4
Format: E-AC-3
Format/Info: Enhanced AC-3
Commercial name: Dolby Digital Plus
Codec ID: A_EAC3
Duration: 1 h 55 min
Bit rate mode: Constant
Bit rate: 640 kb/s
Channel(s): 6 channels
Channel layout: L R C LFE Ls Rs
Sampling rate: 48.0 kHz
Frame rate: 31.250 FPS (1536 SPF)
Compression mode: Lossy
Stream size: 530 MiB (7%)
Language: Ukrainian
Service kind: Complete Main
Default: No
Forced: No
Audio #4
ID: 5
Format: AC-3
Format/Info: Audio Coding 3
Commercial name: Dolby Digital
Codec ID: A_AC3
Duration: 1 h 55 min
Bit rate mode: Constant
Bit rate: 640 kb/s
Channel(s): 6 channels
Channel layout: L R C LFE Ls Rs
Sampling rate: 48.0 kHz
Frame rate: 31.250 FPS (1536 SPF)
Compression mode: Lossy
Stream size: 530 MiB (7%)
Language: English
Service kind: Complete Main
Default: No
Forced: No
Audio #5
ID: 6
Format: E-AC-3 JOC
Format/Info: Enhanced AC-3 with Joint Object Coding
Commercial name: Dolby Digital Plus with Dolby Atmos
Codec ID: A_EAC3
Duration: 1 h 55 min
Bit rate mode: Constant
Bit rate: 768 kb/s
Channel(s): 6 channels
Channel layout: L R C LFE Ls Rs
Sampling rate: 48.0 kHz
Frame rate: 31.250 FPS (1536 SPF)
Compression mode: Lossy
Stream size: 637 MiB (9%)
Language: English
Service kind: Complete Main
Default: No
Forced: No
Complexity index: 16
Number of dynamic objects: 15
Bed channel count: 1 channel
Bed channel configuration: LFE
Audio #6
ID: 7
Format: E-AC-3
Format/Info: Enhanced AC-3
Commercial name: Dolby Digital Plus
Codec ID: A_EAC3
Duration: 1 h 55 min
Bit rate mode: Constant
Bit rate: 640 kb/s
Channel(s): 6 channels
Channel layout: L R C LFE Ls Rs
Sampling rate: 48.0 kHz
Frame rate: 31.250 FPS (1536 SPF)
Compression mode: Lossy
Stream size: 530 MiB (7%)
Language: French
Service kind: Complete Main
Default: No
Forced: No
Audio #7
ID: 8
Format: E-AC-3
Format/Info: Enhanced AC-3
Commercial name: Dolby Digital Plus
Codec ID: A_EAC3
Duration: 1 h 55 min
Bit rate mode: Constant
Bit rate: 640 kb/s
Channel(s): 6 channels
Channel layout: L R C LFE Ls Rs
Sampling rate: 48.0 kHz
Frame rate: 31.250 FPS (1536 SPF)
Compression mode: Lossy
Stream size: 530 MiB (7%)
Language: German
Service kind: Complete Main
Default: No
Forced: No
Audio #8
ID: 9
Format: E-AC-3
Format/Info: Enhanced AC-3
Commercial name: Dolby Digital Plus
Codec ID: A_EAC3
Duration: 1 h 55 min
Bit rate mode: Constant
Bit rate: 640 kb/s
Channel(s): 6 channels
Channel layout: L R C LFE Ls Rs
Sampling rate: 48.0 kHz
Frame rate: 31.250 FPS (1536 SPF)
Compression mode: Lossy
Stream size: 530 MiB (7%)
Language: Italian
Service kind: Complete Main
Default: No
Forced: No
Audio #9
ID: 10
Format: E-AC-3
Format/Info: Enhanced AC-3
Commercial name: Dolby Digital Plus
Codec ID: A_EAC3
Duration: 1 h 55 min
Bit rate mode: Constant
Bit rate: 640 kb/s
Channel(s): 6 channels
Channel layout: L R C LFE Ls Rs
Sampling rate: 48.0 kHz
Frame rate: 31.250 FPS (1536 SPF)
Compression mode: Lossy
Stream size: 530 MiB (7%)
Language: Spanish
Service kind: Complete Main
Default: No
Forced: No
Audio #10
ID: 11
Format: E-AC-3
Format/Info: Enhanced AC-3
Commercial name: Dolby Digital Plus
Codec ID: A_EAC3
Duration: 1 h 55 min
Bit rate mode: Constant
Bit rate: 640 kb/s
Channel(s): 6 channels
Channel layout: L R C LFE Ls Rs
Sampling rate: 48.0 kHz
Frame rate: 31.250 FPS (1536 SPF)
Compression mode: Lossy
Stream size: 530 MiB (7%)
Language: Portuguese
Service kind: Complete Main
Default: No
Forced: No
Text #1
ID: 12
Format: UTF-8
Codec ID: S_TEXT/UTF8
Codec ID/Info: UTF-8 Plain Text
Duration: 1 h 53 min
Bit rate: 1 b/s
Count of elements: 29
Stream size: 1.27 KiB (0%)
Title: Forced
Language: Russian
Default: Yes
Forced: Yes
Text #2
ID: 13
Format: UTF-8
Codec ID: S_TEXT/UTF8
Codec ID/Info: UTF-8 Plain Text
Duration: 1 h 53 min
Bit rate: 73 b/s
Count of elements: 1220
Stream size: 61.3 KiB (0%)
Title: Full
Language: Russian
Default: No
Forced: No
Text #3
ID: 14
Format: UTF-8
Codec ID: S_TEXT/UTF8
Codec ID/Info: UTF-8 Plain Text
Duration: 1 h 53 min
Bit rate: 1 b/s
Count of elements: 28
Stream size: 1.23 KiB (0%)
Title: Forced
Language: Ukrainian
Default: No
Forced: No
Text #4
ID: 15
Format: UTF-8
Codec ID: S_TEXT/UTF8
Codec ID/Info: UTF-8 Plain Text
Duration: 1 h 53 min
Bit rate: 73 b/s
Count of elements: 1265
Stream size: 61.6 KiB (0%)
Title: Full
Language: Ukrainian
Default: No
Forced: No
Text #5
ID: 16
Format: UTF-8
Codec ID: S_TEXT/UTF8
Codec ID/Info: UTF-8 Plain Text
Duration: 33 min 4 s
Bit rate: 0 b/s
Count of elements: 14
Stream size: 243 Bytes (0%)
Title: Forced
Language: English
Default: No
Forced: No
Text #6
ID: 17
Format: UTF-8
Codec ID: S_TEXT/UTF8
Codec ID/Info: UTF-8 Plain Text
Duration: 1 h 45 min
Bit rate: 64 b/s
Count of elements: 1651
Stream size: 49.7 KiB (0%)
Title: SDH
Language: English
Default: No
Forced: No
Text #7
ID: 18
Format: UTF-8
Codec ID: S_TEXT/UTF8
Codec ID/Info: UTF-8 Plain Text
Duration: 1 h 53 min
Bit rate: 0 b/s
Count of elements: 26
Stream size: 765 Bytes (0%)
Title: Forced
Language: French
Default: No
Forced: No
Text #8
ID: 19
Format: UTF-8
Codec ID: S_TEXT/UTF8
Codec ID/Info: UTF-8 Plain Text
Duration: 1 h 53 min
Bit rate: 44 b/s
Count of elements: 1257
Stream size: 37.3 KiB (0%)
Title: Full
Language: French
Default: No
Forced: No
Text #9
ID: 20
Format: UTF-8
Codec ID: S_TEXT/UTF8
Codec ID/Info: UTF-8 Plain Text
Duration: 1 h 53 min
Bit rate: 0 b/s
Count of elements: 26
Stream size: 705 Bytes (0%)
Title: Forced
Language: German
Default: No
Forced: No
Text #10
ID: 21
Format: UTF-8
Codec ID: S_TEXT/UTF8
Codec ID/Info: UTF-8 Plain Text
Duration: 1 h 53 min
Bit rate: 44 b/s
Count of elements: 1176
Stream size: 36.9 KiB (0%)
Title: Full
Language: German
Default: No
Forced: No
Text #11
ID: 22
Format: UTF-8
Codec ID: S_TEXT/UTF8
Codec ID/Info: UTF-8 Plain Text
Duration: 1 h 53 min
Bit rate: 0 b/s
Count of elements: 27
Stream size: 744 Bytes (0%)
Title: Forced
Language: Italian
Default: No
Forced: No
Text #12
ID: 23
Format: UTF-8
Codec ID: S_TEXT/UTF8
Codec ID/Info: UTF-8 Plain Text
Duration: 1 h 53 min
Bit rate: 42 b/s
Count of elements: 1181
Stream size: 35.4 KiB (0%)
Title: Full
Language: Italian
Default: No
Forced: No
Text #13
ID: 24
Format: UTF-8
Codec ID: S_TEXT/UTF8
Codec ID/Info: UTF-8 Plain Text
Duration: 1 h 53 min
Bit rate: 0 b/s
Count of elements: 26
Stream size: 771 Bytes (0%)
Title: Forced
Language: Spanish
Default: No
Forced: No
Text #14
ID: 25
Format: UTF-8
Codec ID: S_TEXT/UTF8
Codec ID/Info: UTF-8 Plain Text
Duration: 1 h 53 min
Bit rate: 44 b/s
Count of elements: 1198
Stream size: 37.0 KiB (0%)
Title: Full
Language: Spanish
Default: No
Forced: No
Text #15
ID: 26
Format: UTF-8
Codec ID: S_TEXT/UTF8
Codec ID/Info: UTF-8 Plain Text
Duration: 1 h 53 min
Bit rate: 0 b/s
Count of elements: 28
Stream size: 765 Bytes (0%)
Title: Forced
Language: Portuguese
Default: No
Forced: No
Text #16
ID: 27
Format: UTF-8
Codec ID: S_TEXT/UTF8
Codec ID/Info: UTF-8 Plain Text
Duration: 1 h 53 min
Bit rate: 43 b/s
Count of elements: 1254
Stream size: 36.5 KiB (0%)
Title: Full
Language: Portuguese
Default: No
Forced: No

_________________
Мои раздачи
[Торрент-статистика]
[Профиль]  [ЛС] 
Показать сообщения:    
Ответить на тему

Текущее время: Сегодня 11:37

Часовой пояс: GMT + 4



Вы не можете начинать темы
Вы не можете отвечать на сообщения
Вы не можете редактировать свои сообщения
Вы не можете удалять свои сообщения
Вы не можете голосовать в опросах
Вы не можете прикреплять файлы к сообщениям
Вы не можете скачивать файлы