Авангард: Арктические волки / Ji xian feng / Vanguard (Стэнли Тун / Stanley Tong) [2020, Китай, Боевик, криминал, BDRemux 1080p] Dub (iTunes) + Original (Chi)+ Sub (rus, eng)

Ответить на тему
 
Автор
Сообщение

Волк ®

Пол:

Стаж: 9 лет 5 месяцев

Сообщений: 892

Репутация: 333 [+] [-]

Откуда: Армения

Пост 21-Дек-2020 22:53

[Цитировать] 

Авангард: Арктические волки / Ji xian feng / Vanguard
«Protection beyond frontiers»
- Страна: Китай
Жанр: Боевик, криминал
Год выпуска: 2020
Продолжительность: 01:47:18-Перевод: Профессиональный (дублированный) | (iTunes)
Cубтитры: Русские (Forced, Full), Английские (Full)
Оригинальная аудиодорожка: Китайский-Режиссёр: Стэнли Тун / Stanley Tong
В ролях: Джеки Чан, Ян Ян, Ай Лунь, Сюй Жохань, Мия Муци, Чжу Чжэнтин, Джексон Лоу, Эйад Хурани, Дзавад Рамезани, Десмонд Элдридж
Описание: Они берутся за задания, которые другим не под силу. Когда международный синдикат наемников похищает известного бизнесмена, единственным шансом на его спасение становится лихая команда «Авангард», не имеющая равных в мастерстве и дерзости.-
-Тип релиза: BDRemux 1080p
Контейнер: MKV-Видео: MPEG-4 AVC Video / 21444 kbps / 1080p / 24 fps / 16:9 / High Profile 4.1
Аудио 1: Русский | AC-3, 6 ch, 384 Kbps, 48.0 kHz
Аудио 2: Китайский | TrueHD, 6 ch, 2473 Kbps, 96.0 kHz
Аудио 3: Китайский | AC-3, 6 ch, 640 Kbps, 48.0 kHz
Формат субтитров: softsub (SRT)
-

MediaInfo

General
Unique ID: 121444874337921834676055950787158350474 (0x5B5D6E98131BA78D06F5C0B333CA1A8A)
Complete name: E:VideoFirstVanguard.2020.BDREMUX.1080p.seleZen.mkv
Format: Matroska
Format version: Version 4
File size: 18.7 GiB
Duration: 1 h 47 min
Overall bit rate mode: Variable
Overall bit rate: 25.0 Mb/s
Movie name: Vanguard 2020 from seleZen
Encoded date: UTC 2020-12-20 19:16:33
Writing application: mkvmerge v40.0.0 ('Old Town Road + Pony') 64-bit
Writing library: libebml v1.3.9 + libmatroska v1.5.2
Video
ID: 1
Format: AVC
Format/Info: Advanced Video Codec
Format profile: High@L4.1
Format settings: CABAC / 4 Ref Frames
Format settings, CABAC: Yes
Format settings, Reference: 4 frames
Codec ID: V_MPEG4/ISO/AVC
Duration: 1 h 47 min
Bit rate mode: Variable
Bit rate: 21.4 Mb/s
Maximum bit rate: 28.0 Mb/s
Width: 1 920 pixels
Height: 1 080 pixels
Display aspect ratio: 16:9
Frame rate mode: Constant
Frame rate: 24.000 FPS
Standard: NTSC
Color space: YUV
Chroma subsampling: 4:2:0
Bit depth: 8 bits
Scan type: Progressive
Bits/(Pixel*Frame): 0.431
Stream size: 16.1 GiB (86%)
Language: Chinese
Default: Yes
Forced: No
Color range: Limited
Color primaries: BT.709
Transfer characteristics: BT.709
Matrix coefficients: BT.709
Audio #1
ID: 2
Format: AC-3
Format/Info: Audio Coding 3
Commercial name: Dolby Digital
Codec ID: A_AC3
Duration: 1 h 47 min
Bit rate mode: Constant
Bit rate: 384 kb/s
Channel(s): 6 channels
Channel layout: L R C LFE Ls Rs
Sampling rate: 48.0 kHz
Frame rate: 31.250 FPS (1536 SPF)
Compression mode: Lossy
Stream size: 295 MiB (2%)
Title: iTunes
Language: Russian
Service kind: Complete Main
Default: Yes
Forced: Yes
Audio #2
ID: 3
Format: MLP FBA
Format/Info: Meridian Lossless Packing FBA
Commercial name: Dolby TrueHD
Codec ID: A_TRUEHD
Duration: 1 h 47 min
Bit rate mode: Variable
Bit rate: 2 473 kb/s
Maximum bit rate: 4 944 kb/s
Channel(s): 6 channels
Channel layout: L R C LFE Ls Rs
Sampling rate: 96.0 kHz
Frame rate: 1 200.000 FPS (80 SPF)
Compression mode: Lossless
Stream size: 1.85 GiB (10%)
Title: Original
Language: Chinese
Default: No
Forced: No
Audio #3
ID: 4
Format: AC-3
Format/Info: Audio Coding 3
Commercial name: Dolby Digital
Codec ID: A_AC3
Duration: 1 h 47 min
Bit rate mode: Constant
Bit rate: 640 kb/s
Channel(s): 6 channels
Channel layout: L R C LFE Ls Rs
Sampling rate: 48.0 kHz
Frame rate: 31.250 FPS (1536 SPF)
Compression mode: Lossy
Stream size: 491 MiB (3%)
Language: Chinese
Service kind: Complete Main
Default: No
Forced: No
Text #1
ID: 5
Format: UTF-8
Codec ID: S_TEXT/UTF8
Codec ID/Info: UTF-8 Plain Text
Duration: 1 h 32 min
Bit rate: 0 b/s
Count of elements: 9
Stream size: 439 Bytes (0%)
Title: Forced
Language: Russian
Default: Yes
Forced: Yes
Text #2
ID: 6
Format: UTF-8
Codec ID: S_TEXT/UTF8
Codec ID/Info: UTF-8 Plain Text
Duration: 1 h 38 min
Bit rate: 64 b/s
Count of elements: 1039
Stream size: 46.7 KiB (0%)
Title: Full [Enigma]
Language: Russian
Default: No
Forced: No
Text #3
ID: 7
Format: UTF-8
Codec ID: S_TEXT/UTF8
Codec ID/Info: UTF-8 Plain Text
Duration: 1 h 38 min
Bit rate: 36 b/s
Count of elements: 1316
Stream size: 26.4 KiB (0%)
Title: Full
Language: English
Default: No
Forced: No
Menu
00:00:00.000: zh:Глава 01
00:09:28.917: zh:Глава 02
00:18:20.083: zh:Глава 03
00:26:45.958: zh:Глава 04
00:36:07.208: zh:Глава 05
00:45:35.000: zh:Глава 06
00:53:20.958: zh:Глава 07
01:02:13.458: zh:Глава 08
01:10:39.500: zh:Глава 09
01:19:55.958: zh:Глава 10
01:29:10.333: zh:Глава 11
01:33:06.583: zh:Глава 12

Скриншоты


_________________
Мои раздачи
[Торрент-статистика]
[Профиль]  [ЛС] 
Показать сообщения:    
Ответить на тему

Текущее время: Сегодня 12:21

Часовой пояс: GMT + 4



Вы не можете начинать темы
Вы не можете отвечать на сообщения
Вы не можете редактировать свои сообщения
Вы не можете удалять свои сообщения
Вы не можете голосовать в опросах
Вы не можете прикреплять файлы к сообщениям
Вы не можете скачивать файлы