Довод / Tenet (Кристофер Нолан / Christopher Nolan) [2020, Великобритания, США, Фантастика, боевик, BDRemux 1080p] [IMAX Edition] Dub (iTunes) + Original (Eng) + Sub (rus, ukr, eng)

Ответить на тему
 
Автор
Сообщение

Волк ®

Пол:

Стаж: 9 лет 5 месяцев

Сообщений: 892

Репутация: 333 [+] [-]

Откуда: Армения

Пост 16-Дек-2020 00:09

[Цитировать] 

Довод / Tenet
«Время уходит»
- Страна: Великобритания, США
Жанр: Фантастика, боевик
Год выпуска: 2020
Продолжительность: 02:30:09-Перевод: Профессиональный (дублированный) | (iTunes)
Cубтитры: Русские (Forced, Full), Украинские (Forced), Английские (Full, SDH)
Оригинальная аудиодорожка: Английский-Режиссёр: Кристофер Нолан / Christopher Nolan
В ролях: Джон Дэвид Вашингтон, Роберт Паттинсон, Элизабет Дебики, Кеннет Брана, Аарон Тейлор-Джонсон, Майкл Кейн, Химеш Патель, Юрий Колокольников, Димпл Кападиа, Клеманс Поэзи
Описание: После теракта в киевском оперном театре агент ЦРУ объединяется с британской разведкой, чтобы противостоять русскому олигарху, который сколотил состояние на торговле оружием. Для этого агенты используют инверсию времени - технологию будущего, позволяющую времени идти вспять.-
-Тип релиза: BDRemux 1080p
Контейнер: MKV-Видео: MPEG-4 AVC Video / 29792 kbps / 1080p / 23.976 fps / 16:9 / High Profile 4.1
Аудио 1: Русский | AC-3, 6 ch, 384 Kbps, 48.0 kHz Dub iTunes
Аудио 2: Украинский | AC-3, 2.0 ch, 192 Kbps, 48.0 kHz Dub iTunes
Аудио 3: Английский | DTS-HD MA, 6 ch, 4036 Kbps, 48.0 kHz, 24-bit (DTS Core: 5.1 / 48 kHz / 1509 kbps / 24-bit)
Формат субтитров: softsub (SRT)
-

MediaInfo

Код:
General
Unique ID                                : 65878393072996952616209732153678849663 (0x318FB78CB482C125E7B33006E5A1667F)
Complete name                            : /Volumes/Promise Pegasus/Tenet.BDRemux.1080p.mkv
Format                                   : Matroska
Format version                           : Version 4
File size                                : 36.1 GiB
Duration                                 : 2 h 30 min
Overall bit rate mode                    : Variable
Overall bit rate                         : 34.4 Mb/s
Movie name                               : Tenet BDRemux 1080p
Encoded date                             : UTC 2020-12-15 09:16:09
Writing application                      : mkvmerge v51.0.0 ('I Wish') 64-bit
Writing library                          : libebml v1.4.0 + libmatroska v1.6.2
Video
ID                                       : 1
Format                                   : AVC
Format/Info                              : Advanced Video Codec
Format profile                           : High@L4.1
Format settings                          : CABAC / 2 Ref Frames
Format settings, CABAC                   : Yes
Format settings, Reference frames        : 2 frames
Format settings, GOP                     : M=1, N=10
Codec ID                                 : V_MPEG4/ISO/AVC
Duration                                 : 2 h 30 min
Bit rate mode                            : Variable
Bit rate                                 : 29.8 Mb/s
Width                                    : 1 920 pixels
Height                                   : 1 080 pixels
Display aspect ratio                     : 16:9
Frame rate mode                          : Constant
Frame rate                               : 23.976 (24000/1001) FPS
Color space                              : YUV
Chroma subsampling                       : 4:2:0
Bit depth                                : 8 bits
Scan type                                : Progressive
Bits/(Pixel*Frame)                       : 0.599
Stream size                              : 31.2 GiB (87%)
Language                                 : English
Default                                  : Yes
Forced                                   : No
Audio #1
ID                                       : 2
Format                                   : AC-3
Format/Info                              : Audio Coding 3
Commercial name                          : Dolby Digital
Codec ID                                 : A_AC3
Duration                                 : 2 h 30 min
Bit rate mode                            : Constant
Bit rate                                 : 384 kb/s
Channel(s)                               : 6 channels
Channel layout                           : L R C LFE Ls Rs
Sampling rate                            : 48.0 kHz
Frame rate                               : 31.250 FPS (1536 SPF)
Compression mode                         : Lossy
Stream size                              : 412 MiB (1%)
Title                                    : Russian Dub iTunes
Language                                 : Russian
Service kind                             : Complete Main
Default                                  : Yes
Forced                                   : No
Audio #2
ID                                       : 3
Format                                   : AC-3
Format/Info                              : Audio Coding 3
Commercial name                          : Dolby Digital
Codec ID                                 : A_AC3
Duration                                 : 2 h 30 min
Bit rate mode                            : Constant
Bit rate                                 : 192 kb/s
Channel(s)                               : 2 channels
Channel layout                           : L R
Sampling rate                            : 48.0 kHz
Frame rate                               : 31.250 FPS (1536 SPF)
Compression mode                         : Lossy
Stream size                              : 206 MiB (1%)
Title                                    : Ukrainian Dub iTunes
Language                                 : Ukrainian
Service kind                             : Complete Main
Default                                  : No
Forced                                   : No
Audio #3
ID                                       : 4
Format                                   : DTS XLL
Format/Info                              : Digital Theater Systems
Commercial name                          : DTS-HD Master Audio
Codec ID                                 : A_DTS
Duration                                 : 2 h 30 min
Bit rate mode                            : Variable
Bit rate                                 : 4 036 kb/s
Channel(s)                               : 6 channels
Channel layout                           : C L R Ls Rs LFE
Sampling rate                            : 48.0 kHz
Frame rate                               : 93.750 FPS (512 SPF)
Bit depth                                : 24 bits
Compression mode                         : Lossless
Stream size                              : 4.23 GiB (12%)
Title                                    : English Original
Language                                 : English
Default                                  : No
Forced                                   : No
Text #1
ID                                       : 5
Format                                   : UTF-8
Codec ID                                 : S_TEXT/UTF8
Codec ID/Info                            : UTF-8 Plain Text
Duration                                 : 2 h 27 min
Bit rate                                 : 0 b/s
Count of elements                        : 28
Stream size                              : 811 Bytes (0%)
Title                                    : Russian forced
Language                                 : Russian
Default                                  : Yes
Forced                                   : No
Text #2
ID                                       : 6
Format                                   : UTF-8
Codec ID                                 : S_TEXT/UTF8
Codec ID/Info                            : UTF-8 Plain Text
Duration                                 : 2 h 28 min
Bit rate                                 : 90 b/s
Count of elements                        : 1854
Stream size                              : 98.8 KiB (0%)
Title                                    : Russian full
Language                                 : Russian
Default                                  : No
Forced                                   : No
Text #3
ID                                       : 7
Format                                   : UTF-8
Codec ID                                 : S_TEXT/UTF8
Codec ID/Info                            : UTF-8 Plain Text
Duration                                 : 2 h 16 min
Bit rate                                 : 0 b/s
Count of elements                        : 24
Stream size                              : 731 Bytes (0%)
Title                                    : Ukrainian forced
Language                                 : Ukrainian
Default                                  : No
Forced                                   : No
Text #4
ID                                       : 8
Format                                   : UTF-8
Codec ID                                 : S_TEXT/UTF8
Codec ID/Info                            : UTF-8 Plain Text
Duration                                 : 2 h 22 min
Bit rate                                 : 52 b/s
Count of elements                        : 1840
Stream size                              : 55.4 KiB (0%)
Title                                    : English full
Language                                 : English
Default                                  : No
Forced                                   : No
Text #5
ID                                       : 9
Format                                   : UTF-8
Codec ID                                 : S_TEXT/UTF8
Codec ID/Info                            : UTF-8 Plain Text
Duration                                 : 2 h 26 min
Bit rate                                 : 59 b/s
Count of elements                        : 2141
Stream size                              : 64.0 KiB (0%)
Title                                    : English SDH
Language                                 : English
Default                                  : No
Forced                                   : No
Menu
00:00:00.000                             : en:Chapter 01
00:09:39.412                             : en:Chapter 02
00:19:30.502                             : en:Chapter 03
00:28:18.405                             : en:Chapter 04
00:38:49.368                             : en:Chapter 05
00:49:20.165                             : en:Chapter 06
01:00:33.254                             : en:Chapter 07
01:09:41.510                             : en:Chapter 08
01:22:36.409                             : en:Chapter 09
01:30:54.740                             : en:Chapter 10
01:39:40.683                             : en:Chapter 11
01:51:02.322                             : en:Chapter 12
01:59:40.798                             : en:Chapter 13
02:11:42.853                             : en:Chapter 14
02:19:07.088                             : en:Chapter 15

Скриншоты


_________________
Мои раздачи
[Торрент-статистика]
[Профиль]  [ЛС] 
Показать сообщения:    
Ответить на тему

Текущее время: Сегодня 10:25

Часовой пояс: GMT + 4



Вы не можете начинать темы
Вы не можете отвечать на сообщения
Вы не можете редактировать свои сообщения
Вы не можете удалять свои сообщения
Вы не можете голосовать в опросах
Вы не можете прикреплять файлы к сообщениям
Вы не можете скачивать файлы