Честный вор / Honest Thief (Марк Уильямс / Mark Williams) [2020, США, Боевик, триллер, драма, мелодрама, криминал, BDRemux 1080p] Dub (iTunes) + Original (Eng) + Sub (eng)

Ответить на тему
 
Автор
Сообщение

Волк ®

Пол:

Стаж: 9 лет 5 месяцев

Сообщений: 892

Репутация: 333 [+] [-]

Откуда: Армения

Пост 15-Дек-2020 21:45

[Цитировать] 

Честный вор / Honest Thief
«Never Steal a Man's Second Chance»
- Страна: США
Жанр: Боевик, триллер, драма, мелодрама, криминал
Год выпуска: 2020
Продолжительность: 01:38:32-Перевод: Профессиональный (дублированный) | (iTunes)
Cубтитры: Английские (Full)
Оригинальная аудиодорожка: Английский-Режиссёр: Марк Уильямс / Mark Williams-В ролях: Лиам Нисон, Кейт Уолш, Джай Кортни, Джеффри Донован, Энтони Рамос, Роберт Патрик, Таззи , Жасмин Сепас Джонс, Девон Дип, Herlin Navarro-Описание: Он – профессиональный грабитель банков, который решил отойти от дел. Но стать честным, будучи вором, не так просто: ему придется дать отпор продажным копам, чтобы спасти своё имя и любимую.-
-Тип релиза: BDRemux 1080p
Контейнер: MKV-Видео: MPEG-4 AVC Video / 25175 kbps / 1080p / 24 fps / 16:9 / High Profile 4.1
Аудио 1: Русский | AC-3, 6 ch, 384 Kbps, 48.0 kHz
Аудио 2: Английский | DTS-HD MA, 6 ch, 3220 Kbps, 48.0 kHz, 24-bit (DTS Core: 5.1 / 48 kHz / 1509 kbps / 24-bit)
Формат субтитров: softsub (SRT)-

MediaInfo

Код:
General
Unique ID                                : 36781006454990269933547949072868948561 (0x1BABC3A0C09BB7671942C4AADEEFBA51)
Complete name                            : /Volumes/Promise Pegasus/Honest.Thief.BDRemux.1080p.mkv
Format                                   : Matroska
Format version                           : Version 4
File size                                : 19.8 GiB
Duration                                 : 1 h 38 min
Overall bit rate mode                    : Variable
Overall bit rate                         : 28.8 Mb/s
Movie name                               : Honest Thief BDRemux 1080p
Encoded date                             : UTC 2020-12-15 11:27:58
Writing application                      : mkvmerge v51.0.0 ('I Wish') 64-bit
Writing library                          : libebml v1.4.0 + libmatroska v1.6.2
Video
ID                                       : 1
Format                                   : AVC
Format/Info                              : Advanced Video Codec
Format profile                           : High@L4.1
Format settings                          : CABAC / 4 Ref Frames
Format settings, CABAC                   : Yes
Format settings, Reference frames        : 4 frames
Format settings, GOP                     : M=3, N=24
Codec ID                                 : V_MPEG4/ISO/AVC
Duration                                 : 1 h 38 min
Bit rate mode                            : Variable
Bit rate                                 : 25.2 Mb/s
Maximum bit rate                         : 30.0 Mb/s
Width                                    : 1 920 pixels
Height                                   : 1 080 pixels
Display aspect ratio                     : 16:9
Frame rate mode                          : Constant
Frame rate                               : 24.000 FPS
Color space                              : YUV
Chroma subsampling                       : 4:2:0
Bit depth                                : 8 bits
Scan type                                : Progressive
Bits/(Pixel*Frame)                       : 0.506
Stream size                              : 17.3 GiB (87%)
Language                                 : English
Default                                  : Yes
Forced                                   : No
Color range                              : Limited
Color primaries                          : BT.709
Transfer characteristics                 : BT.709
Matrix coefficients                      : BT.709
Audio #1
ID                                       : 2
Format                                   : AC-3
Format/Info                              : Audio Coding 3
Commercial name                          : Dolby Digital
Codec ID                                 : A_AC3
Duration                                 : 1 h 38 min
Bit rate mode                            : Constant
Bit rate                                 : 384 kb/s
Channel(s)                               : 6 channels
Channel layout                           : L R C LFE Ls Rs
Sampling rate                            : 48.0 kHz
Frame rate                               : 31.250 FPS (1536 SPF)
Compression mode                         : Lossy
Stream size                              : 271 MiB (1%)
Title                                    : Russian Dub iTunes
Language                                 : Russian
Service kind                             : Complete Main
Default                                  : Yes
Forced                                   : No
Audio #2
ID                                       : 3
Format                                   : DTS XLL
Format/Info                              : Digital Theater Systems
Commercial name                          : DTS-HD Master Audio
Codec ID                                 : A_DTS
Duration                                 : 1 h 38 min
Bit rate mode                            : Variable
Bit rate                                 : 3 220 kb/s
Channel(s)                               : 6 channels
Channel layout                           : C L R Ls Rs LFE
Sampling rate                            : 48.0 kHz
Frame rate                               : 93.750 FPS (512 SPF)
Bit depth                                : 24 bits
Compression mode                         : Lossless
Stream size                              : 2.22 GiB (11%)
Title                                    : English Original
Language                                 : English
Default                                  : No
Forced                                   : No
Text
ID                                       : 4
Format                                   : UTF-8
Codec ID                                 : S_TEXT/UTF8
Codec ID/Info                            : UTF-8 Plain Text
Duration                                 : 1 h 28 min
Bit rate                                 : 54 b/s
Count of elements                        : 1111
Stream size                              : 35.6 KiB (0%)
Title                                    : English full
Language                                 : English
Default                                  : No
Forced                                   : No
Menu
00:00:00.000                             : en:Chapter 1
00:07:44.667                             : en:Chapter 2
00:14:48.208                             : en:Chapter 3
00:19:37.750                             : en:Chapter 4
00:24:50.292                             : en:Chapter 5
00:34:49.500                             : en:Chapter 6
00:45:43.583                             : en:Chapter 7
00:56:30.833                             : en:Chapter 8
01:06:27.250                             : en:Chapter 9
01:14:13.667                             : en:Chapter 10
01:22:05.375                             : en:Chapter 11
01:30:00.167                             : en:Chapter 12

Скриншоты


_________________
Мои раздачи
[Торрент-статистика]
[Профиль]  [ЛС] 
Показать сообщения:    
Ответить на тему

Текущее время: Сегодня 04:00

Часовой пояс: GMT + 4



Вы не можете начинать темы
Вы не можете отвечать на сообщения
Вы не можете редактировать свои сообщения
Вы не можете удалять свои сообщения
Вы не можете голосовать в опросах
Вы не можете прикреплять файлы к сообщениям
Вы не можете скачивать файлы