Ворон / The Crow (1994) [1080p] BDRemux

Ответить на тему
 
Автор
Сообщение

diim ®

Пол:

Стаж: 2 года 9 месяцев

Сообщений: 1034

Репутация: 112 [+] [-]

Пост 12-Фев-2012 06:24

[Цитировать] 

Ворон / The Crow (1994) [1080p] BDRemux-«Darker than the bat.» Русское название: Ворон
Оригинальное название: The Crow
Год выпуска: 1994
Жанр: фэнтези, боевик, триллер, мелодрама, криминал
Перевод: Дубляж, закадровый многоголосый, одноголосый
Описание фильма:
Это была мрачная и страшная ночь. Ночь жуткого праздника Хэллоуин. Банда насильников и убийц, ворвавшись в дом молодой пары, жестоко расправилась с рок-музыкантом Эриком и его невестой Шелли.
Спустя год Эрик Дрэйвен выбирается из могилы и отправляется на поиски убийц. Человек ли он? Или Ворон, жаждущий возмездия?..

Режиссер: Алекс Пройас
В ролях: Брэндон Ли, Эрни Хадсон, Майкл Уинкотт, Дэвид Пэтрик Келли, Эйнджел Дэвид, Рошелль Дэвис, Джон Полито, Бай Лин, Лоуренс Мэйсон
Выпущено: США
Продолжительность: 01:41:38-
Рейтинг R - Детям до 17 лет обязательно присутствие родителей
Дата мировой премьеры: 11 мая 1994
Релиз на DVD: 30 июля 2009, «Настроение Video»-Качество: BDRemux
Контейнер MKV
Видеокодек: MPEG-4 AVC/H.264
Аудиокодек: AC-3, DTS-HD MA, DTS-HD HRA
Видео: 1920x1080, 38,0 Mbps (23,976 fps, 16:9, High@ L4.1)
Аудио #1: AC-3, 192 Kbps, 48.0 KГц, 16 бит, 2 ch - дубляж ("Хлопушка")
Аудио #2: AC-3, 448 Kbps, 48.0 KГц, 16 бит, 6 ch - многоголосый закадровый(Лицензия)
Аудио #3: AC-3, 192 Kbps, 48.0 KГц, 16 бит, 2 ch - многоголосый закадровый(НТВ)
Аудио #4: AC-3, 384 Kbps, 48.0 KГц, 16 бит, 6 ch - одноголосый закадровый (М. Чадов)
Аудио #5: DTS-HD HRA, 2047 Kbps, 48.0 KГц, 24 бит, 6 ch - одноголосый закадровый (Гоблин)Внимание! Присутствует ненормативная лексика!

Аудио #6: DTS-HD MA, 3876 Kbps, 48.0 KГц, 24 бит, 6 ch - одноголосый закадровый (А. Гаврилов)
Аудио #7: DTS-HD HRA, 2047 Kbps, 48.0 KГц, 24 бит, 6 ch - одноголосый закадровый (В. Горчаков)
Аудио #8: DTS-HD MA, 3943 Kbps, 48.0 KГц, 24 бит, 6 ch - English

Субтитры: русские, английские
Сохранены оригинальные чаптеры.

MediaInfo

Код:
Общее
Уникальный идентификатор         : 196789741767562396857108799627807281777 (0x940C535D43746604AAB51372E669D271)
Полное имя                       : H:\Release\Ворон - The Crow (1994) [1080p] BDRemux.mkv
Формат                           : Matroska
Версия формата                   : Version 2
Размер файла                     : 22,8 Гбайт
Продолжительность                : 1 ч. 41 м.
Общий поток                      : 32,1 Мбит/сек
Название фильма                  : The Crow (1994) [1080p] BDRemux
Дата кодирования                 : UTC 2011-12-24 21:34:55
Программа кодирования            : mkvmerge v5.0.0 ('Die Wahre Liebe') built on Sep 25 2011 20:33:49
Библиотека кодирования           : libebml v1.2.2 + libmatroska v1.3.0
Видео
Идентификатор                    : 1
Формат                           : AVC
Формат/Информация                : Advanced Video Codec
Профиль формата                  : High@L4.1
Параметр CABAC формата           : Да
Параметр ReFrames формата        : 4 кадра
Идентификатор кодека             : V_MPEG4/ISO/AVC
Продолжительность                : 1 ч. 41 м.
Вид битрейта                     : Переменный
Битрейт                          : 23,0 Мбит/сек
Максимальный битрейт             : 38,0 Мбит/сек
Ширина                           : 1920 пикселей
Высота                           : 1080 пикселей
Соотношение сторон               : 16:9
Частота кадров                   : 23,976 кадра/сек
Цветовое пространство            : YUV
Субдискретизация насыщенности    : 4:2:0
Битовая глубина                  : 8 бит
Тип развёртки                    : Прогрессивная
Бит/(Пиксели*Кадры)              : 0.464
Размер потока                    : 16,4 Гбайт (72%)
Заголовок                        : The Crow (1994) [1080p] BDRemux (by sergey2925 for NNM-Club.ru)
Язык                             : English
Основные цвета                   : BT.709-5, BT.1361, IEC 61966-2-4, SMPTE RP177
Характеристики трансфера         : BT.709-5, BT.1361
Коэффициенты матрицы             : BT.709-5, BT.1361, IEC 61966-2-4 709, SMPTE RP177
Аудио #1
Идентификатор                    : 2
Формат                           : AC-3
Формат/Информация                : Audio Coding 3
Расширение режима                : CM (complete main)
Идентификатор кодека             : A_AC3
Продолжительность                : 1 ч. 41 м.
Вид битрейта                     : Постоянный
Битрейт                          : 192 Кбит/сек
Каналы                           : 2 канала
Расположение каналов             : Front: L R
Частота                          : 48,0 КГц
Битовая глубина                  : 16 бит
Метод сжатия                     : С потерями
Размер потока                    : 140 Мбайт (1%)
Заголовок                        : RUS.AC-3.DUB(Hlopushka)
Язык                             : Russian
Аудио #2
Идентификатор                    : 3
Формат                           : AC-3
Формат/Информация                : Audio Coding 3
Расширение режима                : CM (complete main)
Идентификатор кодека             : A_AC3
Продолжительность                : 1 ч. 41 м.
Вид битрейта                     : Постоянный
Битрейт                          : 448 Кбит/сек
Каналы                           : 6 каналов
Расположение каналов             : Front: L C R, Side: L R, LFE
Частота                          : 48,0 КГц
Битовая глубина                  : 16 бит
Метод сжатия                     : С потерями
Размер потока                    : 326 Мбайт (1%)
Заголовок                        : RUS.AC-3.MVO(License)
Язык                             : Russian
Аудио #3
Идентификатор                    : 4
Формат                           : AC-3
Формат/Информация                : Audio Coding 3
Расширение режима                : CM (complete main)
Идентификатор кодека             : A_AC3
Продолжительность                : 1 ч. 41 м.
Вид битрейта                     : Постоянный
Битрейт                          : 192 Кбит/сек
Каналы                           : 2 канала
Расположение каналов             : Front: L R
Частота                          : 48,0 КГц
Битовая глубина                  : 16 бит
Метод сжатия                     : С потерями
Размер потока                    : 140 Мбайт (1%)
Заголовок                        : RUS.AC-3.MVO(NTV)
Язык                             : Russian
Аудио #4
Идентификатор                    : 5
Формат                           : AC-3
Формат/Информация                : Audio Coding 3
Расширение режима                : CM (complete main)
Идентификатор кодека             : A_AC3
Продолжительность                : 1 ч. 41 м.
Вид битрейта                     : Постоянный
Битрейт                          : 384 Кбит/сек
Каналы                           : 6 каналов
Расположение каналов             : Front: L C R, Side: L R, LFE
Частота                          : 48,0 КГц
Битовая глубина                  : 16 бит
Метод сжатия                     : С потерями
Размер потока                    : 279 Мбайт (1%)
Заголовок                        : RUS.AC-3.VO(Chadov)
Язык                             : Russian
Аудио #5
Идентификатор                    : 6
Формат                           : DTS
Формат/Информация                : Digital Theater Systems
Профиль формата                  : HRA / Core
Идентификатор кодека             : A_DTS
Продолжительность                : 1 ч. 41 м.
Вид битрейта                     : Постоянный
Битрейт                          : 2047 Кбит/сек / 1510 Кбит/сек
Каналы                           : 6 каналов
Расположение каналов             : Front: L C R, Side: L R, LFE
Частота                          : 48,0 КГц
Битовая глубина                  : 24 бит
Метод сжатия                     : С потерями
Размер потока                    : 1,45 Гбайт (6%)
Заголовок                        : RUS.DTS-HRA.VO(Goblin)
Язык                             : Russian
Аудио #6
Идентификатор                    : 7
Формат                           : DTS
Формат/Информация                : Digital Theater Systems
Профиль формата                  : MA / Core
Идентификатор кодека             : A_DTS
Продолжительность                : 1 ч. 41 м.
Вид битрейта                     : Переменный
Битрейт                          : 1561 Кбит/сек / 1510 Кбит/сек
Каналы                           : 6 каналов
Расположение каналов             : Front: L C R, Side: L R, LFE
Частота                          : 48,0 КГц
Битовая глубина                  : 24 бит
Метод сжатия                     : Без потерь / Lossy
Заголовок                        : RUS.DTS-HD MA.VO(Gavrilov)
Язык                             : Russian
Аудио #7
Идентификатор                    : 8
Формат                           : DTS
Формат/Информация                : Digital Theater Systems
Профиль формата                  : HRA / Core
Идентификатор кодека             : A_DTS
Продолжительность                : 1 ч. 41 м.
Вид битрейта                     : Постоянный
Битрейт                          : 2047 Кбит/сек / 1510 Кбит/сек
Каналы                           : 6 каналов
Расположение каналов             : Front: L C R, Side: L R, LFE
Частота                          : 48,0 КГц
Битовая глубина                  : 24 бит
Метод сжатия                     : С потерями
Размер потока                    : 1,45 Гбайт (6%)
Заголовок                        : RUS.DTS-HRA.VO(Gorchakov)
Язык                             : Russian
Аудио #8
Идентификатор                    : 9
Формат                           : DTS
Формат/Информация                : Digital Theater Systems
Профиль формата                  : MA / Core
Идентификатор кодека             : A_DTS
Продолжительность                : 1 ч. 41 м.
Вид битрейта                     : Переменный
Битрейт                          : 1561 Кбит/сек / 1510 Кбит/сек
Каналы                           : 6 каналов
Расположение каналов             : Front: L C R, Side: L R, LFE
Частота                          : 48,0 КГц
Битовая глубина                  : 24 бит
Метод сжатия                     : Без потерь / Lossy
Заголовок                        : ENG.DTS-HD MA.Lossless
Язык                             : English
Текст #1
Идентификатор                    : 10
Формат                           : UTF-8
Идентификатор кодека             : S_TEXT/UTF8
Идентификатор кодека/Информация  : UTF-8 Plain Text
Заголовок                        : RUS.SUB.Full
Язык                             : Russian
Текст #2
Идентификатор                    : 11
Формат                           : UTF-8
Идентификатор кодека             : S_TEXT/UTF8
Идентификатор кодека/Информация  : UTF-8 Plain Text
Заголовок                        : ENG.SUB.Full
Язык                             : English
Меню
00:00:00.000                     : en:Chapter 00
00:07:16.602                     : en:Chapter 01
00:09:46.419                     : en:Chapter 02
00:18:49.461                     : en:Chapter 03
00:25:40.372                     : en:Chapter 04
00:31:38.021                     : en:Chapter 05
00:37:55.523                     : en:Chapter 06
00:44:27.539                     : en:Chapter 07
00:48:31.033                     : en:Chapter 08
00:51:53.860                     : en:Chapter 09
00:56:56.579                     : en:Chapter 10
00:59:33.903                     : en:Chapter 11
01:03:52.620                     : en:Chapter 12
01:09:20.573                     : en:Chapter 13
01:12:08.741                     : en:Chapter 14
01:19:17.043                     : en:Chapter 15
01:22:18.767                     : en:Chapter 16
01:34:11.479                     : en:Chapter 17

Скриншоты:

[Торрент-статистика]
[Профиль]  [ЛС] 
Показать сообщения:    
Ответить на тему

Текущее время: Сегодня 04:04

Часовой пояс: GMT + 4



Вы не можете начинать темы
Вы не можете отвечать на сообщения
Вы не можете редактировать свои сообщения
Вы не можете удалять свои сообщения
Вы не можете голосовать в опросах
Вы не можете прикреплять файлы к сообщениям
Вы не можете скачивать файлы