Мулан / Mulan (Ники Каро / Niki Caro) [2020, США, Китай, Канада, боевик, фэнтези, драма, WEB-DL 1080p] MVO (IdeaFilm) + Original (Eng) + Sub (Rus, Ukr, Eng)

Ответить на тему
 
Автор
Сообщение

Волк ®

Пол:

Стаж: 9 лет 5 месяцев

Сообщений: 892

Репутация: 333 [+] [-]

Откуда: Армения

Пост 08-Сен-2020 22:46

[Цитировать] 

Мулан / Mulan- Год выхода: 2020
Страна: США, Китай, Канада
Жанр: боевик, фэнтези, драма
Продолжительность: 01:55:08
Перевод: Профессиональный (многоголосый закадровый) IdeaFilm
Субтитры: Русские (FOCS), Украинские, Английские (полные, SDH)
Оригинальная аудиодорожка: Английская-Режиссер:
Ники Каро / Niki Caro-В ролях:
Лю Ифэй, Донни Йен, Гун Ли, Джет Ли, Джейсон Скотт Ли, Йосон Ань, Ма Ци, Розалинд Чао, Чжэн Пэйпэй, Сюзанна Тэнг, Рон Юань, Джан Ю, Чен Тэнг, Доа Моа, Джимми Вонг-О фильме:
Изданный императором Китая указ о призыве на службу в армии одного мужчины из каждой семьи для защиты страны от северных захватчиков вдохновляет Мулан, старшую дочь почетного воина, занять в войсках место больного отца. Маскируясь под мужчину, девушка подвергается испытаниям на каждом шагу, проявляя свои внутреннюю силу и истинный потенциал. Мулан ждет эпичное путешествие, которое превратит её в доблестного воина, позволит заслужить уважение народа и стать гордостью отца.-| IMDB | КиноПоиск | Сэмпл |-Качество: WEB-DL 1080p [DSNP]
Формат: MKV
Видео: 1920x1080 (16:9), 23.976 fps, x264 ~8482 kbps avg, 0.171 bit/pixel
Аудио #1: 48 kHz, AC3 Dolby Digital, 3/2 (L,C,R,l,r) + LFE ch, ~448.00 kbps avg (RUS)
Аудио #2: 48 kHz, E-AC3 JOC Dolby Digital, 5/1 ch, ~768.00 kbps avg (ENG)
Формат субтитров: Softsub (.srt*)
-

Скриншоты

-

MediaInfo

Код:
Полное имя                               : D:\Mulan_2020_WEB-DL_1080p_MVO_by_Dalemake.mkv
Формат                                   : Matroska
Версия формата                           : Version 4
Размер файла                             : 7,80 Гбайт
Продолжительность                        : 1 ч. 55 м.
Режим общего битрейта                    : Переменный
Общий поток                              : 9701 Кбит/сек
Название фильма                          : [Mulan_2020_All_Films_Rutracker]
Дата кодирования                         : UTC 2020-09-08 11:03:53
Программа кодирования                    : mkvmerge v44.0.0 ('Domino') 64-bit
Библиотека кодирования                   : libebml v1.3.10 + libmatroska v1.5.2
Видео
Идентификатор                            : 1
Формат                                   : AVC
Формат/Информация                        : Advanced Video Codec
Профиль формата                          : High@L4
Настройки формата                        : CABAC / 4 Ref Frames
Параметр CABAC формата                   : Да
Параметр RefFrames формата               : 4 кадра
Идентификатор кодека                     : V_MPEG4/ISO/AVC
Продолжительность                        : 1 ч. 55 м.
Вид битрейта                             : Переменный
Битрейт                                  : 8482 Кбит/сек
Максимальный битрейт                     : 12,7 Мбит/сек
Ширина                                   : 1920 пикселей
Высота                                   : 1080 пикселей
Соотношение сторон                       : 16:9
Режим частоты кадров                     : Постоянный
Частота кадров                           : 23,976 (24000/1001) кадра/сек
Цветовое пространство                    : YUV
Субдискретизация насыщенности            : 4:2:0
Битовая глубина                          : 8 бит
Тип развёртки                            : Прогрессивная
Бит/(Пиксели*Кадры)                      : 0.171
Размер потока                            : 6,82 Гбайт (87%)
Заголовок                                : [Mulan_2020_All_Films_Rutracker]
Язык                                     : English
Default                                  : Да
Forced                                   : Нет
Цветовой диапазон                        : Limited
Основные цвета                           : BT.709
Характеристики трансфера                 : BT.709
Коэффициенты матрицы                     : BT.709
Аудио #1
Идентификатор                            : 2
Формат                                   : AC-3
Формат/Информация                        : Audio Coding 3
Коммерческое название                    : Dolby Digital
Идентификатор кодека                     : A_AC3
Продолжительность                        : 1 ч. 55 м.
Вид битрейта                             : Постоянный
Битрейт                                  : 448 Кбит/сек
Каналы                                   : 6 каналов
ChannelLayout                            : L R C LFE Ls Rs
Частота                                  : 48,0 КГц
Частота кадров                           : 31,250 кадров/сек (1536 SPF)
Битовая глубина                          : 16 бит
Метод сжатия                             : С потерями
Размер потока                            : 369 Мбайт (5%)
Заголовок                                : MVO - IdeaFilm
Язык                                     : Russian
ServiceKind/String                       : Complete Main
Default                                  : Да
Forced                                   : Нет
Аудио #2
Идентификатор                            : 3
Формат                                   : E-AC-3 JOC
Формат/Информация                        : Enhanced AC-3 with Joint Object Coding
Коммерческое название                    : Dolby Digital Plus with Dolby Atmos
Идентификатор кодека                     : A_EAC3
Продолжительность                        : 1 ч. 55 м.
Вид битрейта                             : Постоянный
Битрейт                                  : 768 Кбит/сек
Каналы                                   : 6 каналов
ChannelLayout                            : L R C LFE Ls Rs
Частота                                  : 48,0 КГц
Частота кадров                           : 31,250 кадров/сек (1536 SPF)
Метод сжатия                             : С потерями
Размер потока                            : 633 Мбайт (8%)
Заголовок                                : Original
Язык                                     : English
ServiceKind/String                       : Complete Main
Default                                  : Нет
Forced                                   : Нет
ComplexityIndex                          : 16
NumberOfDynamicObjects                   : 15
BedChannelCount/String                   : 1 канал
BedChannelConfiguration                  : LFE
Текст #1
Идентификатор                            : 4
Формат                                   : UTF-8
Идентификатор кодека                     : S_TEXT/UTF8
Идентификатор кодека/Информация          : UTF-8 Plain Text
Продолжительность                        : 1 ч. 44 м.
Битрейт                                  : 51 бит/сек
ElementCount                             : 850
Размер потока                            : 39,0 Кбайт (0%)
Заголовок                                : Full - FOCS
Язык                                     : Russian
Default                                  : Нет
Forced                                   : Нет
Текст #2
Идентификатор                            : 5
Формат                                   : UTF-8
Идентификатор кодека                     : S_TEXT/UTF8
Идентификатор кодека/Информация          : UTF-8 Plain Text
Продолжительность                        : 1 ч. 43 м.
Битрейт                                  : 50 бит/сек
ElementCount                             : 848
Размер потока                            : 38,2 Кбайт (0%)
Заголовок                                : Full
Язык                                     : Ukrainian
Default                                  : Нет
Forced                                   : Нет
Текст #3
Идентификатор                            : 6
Формат                                   : UTF-8
Идентификатор кодека                     : S_TEXT/UTF8
Идентификатор кодека/Информация          : UTF-8 Plain Text
Продолжительность                        : 1 ч. 43 м.
Битрейт                                  : 29 бит/сек
ElementCount                             : 851
Размер потока                            : 22,1 Кбайт (0%)
Заголовок                                : Full
Язык                                     : English
Default                                  : Нет
Forced                                   : Нет
Текст #4
Идентификатор                            : 7
Формат                                   : UTF-8
Идентификатор кодека                     : S_TEXT/UTF8
Идентификатор кодека/Информация          : UTF-8 Plain Text
Продолжительность                        : 1 ч. 50 м.
Битрейт                                  : 35 бит/сек
ElementCount                             : 1150
Размер потока                            : 28,5 Кбайт (0%)
Заголовок                                : Full - SDH
Язык                                     : English
Default                                  : Нет
Forced                                   : Нет
-

_________________
Мои раздачи
[Торрент-статистика]
[Профиль]  [ЛС] 
Показать сообщения:    
Ответить на тему

Текущее время: Сегодня 04:50

Часовой пояс: GMT + 4



Вы не можете начинать темы
Вы не можете отвечать на сообщения
Вы не можете редактировать свои сообщения
Вы не можете удалять свои сообщения
Вы не можете голосовать в опросах
Вы не можете прикреплять файлы к сообщениям
Вы не можете скачивать файлы