Сумерки. Сага. Рассвет: Часть 1 / The Twilight Saga: Breaking Dawn - Part 1 (Билл Кондон) [2011, фэнтези, драма, мелодрама, BDRip 1080p] R5

Ответить на тему
 
Автор
Сообщение

diim ®

Пол:

Стаж: 2 года 6 месяцев

Сообщений: 1034

Репутация: 112 [+] [-]

Пост 12-Фев-2012 04:58

[Цитировать] 

Сумерки. Сага. Рассвет: Часть 1 / The Twilight Saga: Breaking Dawn - Part 1
Год выпуска: 2011
Страна: США
Слоган: «Вечность - это только начало»
Жанр: фэнтези, драма, мелодрама
Продолжительность: 01:57:07
Перевод: Профессиональный (полное дублирование)
Режиссер: Билл Кондон
Сценарий: Мелисса Розенберг, Стефани Майер
Продюсер: Вик Годфри, Стефани Майер, Карен Розенфельт, Билл Баннерман, Марк Морган
Оператор: Гильермо Наварро
Композитор: Картер Бёруэлл
В ролях: Кристен Стюарт, Роберт Паттинсон, Тэйлор Лотнер, Билли Бёрк, Питер Фачинелли, Элизабет Ризер, Келлан Латс, Никки Рид, Джексон Рэтбоун, Эшли Грин, Джил Бирмингем, Сара Кларк
Дублёры: Наталья Фищук, Александр Гаврилин, Илья Хвостиков, Юрий Деркач, Василий Дахненко, Пётр Иващенко, Екатерина Африкантова, Илья Бледный, Вероника Саркисова, Борис Токарев, Ирина Пономарева, Полина Щербакова-Описание: В четвертой части Белла Свон оказывается перед непростым выбором - сохранить жизнь себе или своему ребенку (наполовину вампиру, наполовину человеку). Она решает оставить малыша, но Эдвард и остальные члены семьи Каллен категорически против.
Помощи Белле ждать не от кого, но она приходит неожиданно, от того, от кого её совсем не ждали. Вдвоем Белла и Розали пытаются сохранить жизнь малышу, даже не догадываясь, к каким ужасающим последствиям это приведет.-Качество: BDRip 1080p R5
Формат: MKV
Видео: MPEG4 Video (H264) 1920x800 23.98fps 9175 Kbps
Аудио: DTS 48000Hz 6ch 755 Kbps
Аудио 2: DTS 48000Hz 6ch 1510 Kbps
Субтитры: русские, английские

MediaInfo

Код:
General
Unique ID                        : 204127537046838756592956847586993315569 (0x9991889A7C20EEBA8E62EB7D0CAD1EF1)
Complete name                    : E:\The Twilight Saga Breaking Dawn - Part 1.2011.D.BDRip1080p.UNIONGANG.TV.mkv
Format                           : Matroska
File size                        : 9.39 GiB
Duration                         : 1h 57mn
Overall bit rate                 : 11.5 Mbps
Movie name                       : The Twilight Saga: Breaking Dawn - Part 1.BDRip.1080p.Uniongang.tv
Encoded date                     : UTC 2012-02-11 07:58:38
Writing application              : mkvmerge v5.2.1 ('A Far Off Place') built on Jan  2 2012 23:21:10
Writing library                  : libebml v1.2.3 + libmatroska v1.3.0
Video
ID                               : 1
Format                           : AVC
Format/Info                      : Advanced Video Codec
Format profile                   : High@L4.1
Format settings, CABAC           : Yes
Format settings, ReFrames        : 5 frames
Codec ID                         : V_MPEG4/ISO/AVC
Duration                         : 1h 57mn
Bit rate                         : 9 175 Kbps
Width                            : 1 920 pixels
Height                           : 800 pixels
Display aspect ratio             : 2.40:1
Frame rate                       : 23.976 fps
Color space                      : YUV
Chroma subsampling               : 4:2:0
Bit depth                        : 8 bits
Scan type                        : Progressive
Bits/(Pixel*Frame)               : 0.249
Stream size                      : 7.35 GiB (78%)
Title                            : The Twilight Saga: Breaking Dawn - Part 1.BDRip.1080p.Uniongang.tv
Writing library                  : x264 core 120 r2120 0c7dab9
Encoding settings                : cabac=1 / ref=5 / deblock=1:0:0 / analyse=0x3:0x133 / me=umh / subme=8 / psy=1 / psy_rd=1.00:0.00 / mixed_ref=1 / me_range=16 / chroma_me=1 / trellis=1 / 8x8dct=1 / cqm=0 / deadzone=21,11 / fast_pskip=1 / chroma_qp_offset=-2 / threads=24 / sliced_threads=0 / nr=0 / decimate=1 / interlaced=0 / bluray_compat=0 / constrained_intra=0 / bframes=3 / b_pyramid=2 / b_adapt=1 / b_bias=0 / direct=1 / weightb=1 / open_gop=0 / weightp=2 / keyint=250 / keyint_min=23 / scenecut=40 / intra_refresh=0 / rc=2pass / mbtree=0 / bitrate=9175 / ratetol=1.0 / qcomp=0.60 / qpmin=0 / qpmax=69 / qpstep=4 / cplxblur=20.0 / qblur=0.5 / ip_ratio=1.40 / pb_ratio=1.30 / aq=1:1.00
Language                         : English
Audio #1
ID                               : 2
Format                           : DTS
Format/Info                      : Digital Theater Systems
Codec ID                         : A_DTS
Duration                         : 1h 57mn
Bit rate mode                    : Constant
Bit rate                         : 755 Kbps
Channel(s)                       : 6 channels
Channel positions                : Front: L C R, Side: L R, LFE
Sampling rate                    : 48.0 KHz
Bit depth                        : 24 bits
Compression mode                 : Lossy
Stream size                      : 632 MiB (7%)
Title                            : 768 kbps
Language                         : Russian
Audio #2
ID                               : 3
Format                           : DTS
Format/Info                      : Digital Theater Systems
Format profile                   : ES
Codec ID                         : A_DTS
Duration                         : 1h 57mn
Bit rate mode                    : Constant
Bit rate                         : 1 510 Kbps
Channel(s)                       : 6 channels
Channel positions                : Front: L C R, Side: L R, LFE
Sampling rate                    : 48.0 KHz
Bit depth                        : 24 bits
Compression mode                 : Lossy
Stream size                      : 1.24 GiB (13%)
Title                            : English 1510 kbps
Language                         : English
Text #1
ID                               : 4
Format                           : PGS
Muxing mode                      : zlib
Codec ID                         : S_HDMV/PGS
Codec ID/Info                    : The same subtitle format used on BDs/HD-DVDs
Language                         : Russian
Text #2
ID                               : 5
Format                           : PGS
Muxing mode                      : zlib
Codec ID                         : S_HDMV/PGS
Codec ID/Info                    : The same subtitle format used on BDs/HD-DVDs
Language                         : English

Скриншоты

[Торрент-статистика]
[Профиль]  [ЛС] 
Показать сообщения:    
Ответить на тему

Текущее время: Сегодня 09:56

Часовой пояс: GMT + 4



Вы не можете начинать темы
Вы не можете отвечать на сообщения
Вы не можете редактировать свои сообщения
Вы не можете удалять свои сообщения
Вы не можете голосовать в опросах
Вы не можете прикреплять файлы к сообщениям
Вы не можете скачивать файлы