Зов предков / The Call of the Wild (Крис Сандерс) [ 2020, Драма, приключения, семейный, экранизация,BluRay - HEVC 1080p] DUB iTunes +[HDrezka+Ukr +ENG]+[Subs Rus+ ENG]

Ответить на тему
 
Автор
Сообщение

Враг Нароода ®

Пол:

Стаж: 3 года 3 месяца

Сообщений: 233

Репутация: 291 [+] [-]

Откуда: Красногорск

Пост 02-Май-2020 18:25

[Цитировать] 

---- Зов предков / The Call of the Wild ---- --Год выпуска: 2020
Выпущено: США, Канада, 3 Arts Entertainment, Twentieth Century Fox Animation, Twentieth Century
Жанр: Драма, приключения, семейный, экранизация
Продолжительность: : 01:40:24--Озвучка #1: Дублированное [iTunes] - iTunes - Русский
Озвучка #2: Профессиональный многоголосый - HDrezka Studio - Русский
Озвучка # 3: Дублированное [ Line ] - Line - Украинский
Озвучка #4: Профессиональный многоголосый -Английский - Оригинал
Субтитры: Russian ,English, English SDH
-- Релиз Без Рекламы -- MDB 6.8 --Режиссеры:
Крис Сандерс--В ролях: Карен Гиллан, Харрисон Форд, Кара Ги, Дэн Стивенс, Брэдли Уитфорд, Джин Луиса Келли, Майкл Хорс, Мика Фицджералд, Терри Нотари, Омар Си, Колин Вуделл, Абрахам Бенруби-- История Бака, дружелюбного пса, чья размеренная домашняя жизнь перевернулась с ног на голову во времена золотой лихорадки в 1880-х, когда его вырвали из дома в Калифорнии и перевезли в дикую и холодную Аляску. Будучи новичком в упряжке почтовой службы, а впоследствии лидером, Бак попадает в невероятное приключение, находит свое место в мире и становится хозяином своей жизни.-- --Качество :BluRay - HEVC 10bit - 1080p
Формат: MKV
Видео кодек: H265
Видео: 5023Кбит/сек,1920х808(2.40.1),в 23.976кадр/сек, HEVC (Main10@L5.1@Main)--Аудио Кодек:AC3 , DTS
Аудио #1: DUB iTunes @DD5.1 AC3, 640 Kbps, 48.0 KHz, 6 ch - iTunes - Русский
Аудио #2: MVO HDRezka Studio @DD5.1 AC3, 640 Kbps, 48.0 KHz, 6 ch- HDRezka Studio - Русский
Аудио #53: DUB Ukr Line @DD5.1 AC3, 384 Kbps, 48.0 KHz, 6 ch - iTunes - Украинский
Аудио #4: Original@DD5.1 AC3 , 640 Kbps, 48.0 KHz, 6 ch - English - Оригинал
Аудио #5: Original@DTS-HD Master Audio , 4974 Kbps, 48.0 KHz, 8ch - English - Оригинал--

Доп. информация:

Звуковая дорожка сделана путем наложения чистого голоса озвучивателей на центральный канал оригинальной дорожки. Качество идентично звуковой дорожке.
--

MediaInfo

Общее
Уникальный идентификатор : 79562717731530799897853865645128249873 (0x3BDB38D8812F4896B97FCF32248B7211)
Полное имя : E:\RussianPatriot\Зов предков - The Call of the Wild\The_Call_of_the_Wild_2020_HEVC- 10Bit_Н265_DD5.1_N.B_BluRay_1080_Dub_2xRus_Ukr_Eng\The Call of the Wild_HEVC_DD5.1_N.B_BluRay_1080_DUB_2xRus_Ukr_Eng.mkv
Формат : Matroska
Версия формата : Version 4
Размер файла : 8,57 Гбайт
Продолжительность : 1 ч. 39 м.
Режим общего битрейта : Переменный
Общий поток : 12,3 Мбит/сек
Название фильма : The Call of the Wild 2020 @ Nikolai.Baranov & PIRATIYA
Дата кодирования : UTC 2020-05-02 11:09:31
Программа кодирования : mkvmerge v46.0.0 ('No Deeper Escape') 64-bit
Библиотека кодирования : libebml v1.3.10 + libmatroska v1.5.2
Видео
Идентификатор : 1
Формат : HEVC
Формат/Информация : High Efficiency Video Coding
Профиль формата : Main 10@L5.1@Main
Идентификатор кодека : V_MPEGH/ISO/HEVC
Продолжительность : 1 ч. 39 м.
Битрейт : 5 023 Кбит/сек
Ширина : 1 920 пикселей
Высота : 808 пикселей
Соотношение сторон : 2,40:1
Режим частоты кадров : Постоянный
Частота кадров : 23,976 (24000/1001) кадра/сек
Цветовое пространство : YUV
Субдискретизация насыщенности : 4:2:0
Битовая глубина : 10 бит
Бит/(Пиксели*Кадры) : 0.135
Размер потока : 3,50 Гбайт (41%)
Заголовок : The Call of the Wild_HEVC_DD5.1_N.B_BluRay_1080_DUB_2xRus_Ukr_Eng
Язык : Russian
Default : Да
Forced : Нет
Цветовой диапазон : Full
Основные цвета : BT.709
Характеристики трансфера : BT.709
Коэффициенты матрицы : BT.709
Аудио #1
Идентификатор : 5
Формат : AC-3
Формат/Информация : Audio Coding 3
Коммерческое название : Dolby Digital
Идентификатор кодека : A_AC3
Продолжительность : 1 ч. 39 м.
Вид битрейта : Постоянный
Битрейт : 640 Кбит/сек
Каналы : 6 каналов
Channel layout : L R C LFE Ls Rs
Частота : 48,0 КГц
Частота кадров : 31,250 кадров/сек (1536 SPF)
Метод сжатия : С потерями
Размер потока : 456 Мбайт (5%)
Заголовок : DUB iTunes @DD5.1 AC3, 640 Kbps, 48.0 KHz, 6 ch
Язык : Russian
Service kind : Complete Main
Default : Да
Forced : Нет
Аудио #2
Идентификатор : 6
Формат : AC-3
Формат/Информация : Audio Coding 3
Коммерческое название : Dolby Digital
Идентификатор кодека : A_AC3
Продолжительность : 1 ч. 39 м.
Вид битрейта : Постоянный
Битрейт : 640 Кбит/сек
Каналы : 6 каналов
Channel layout : L R C LFE Ls Rs
Частота : 48,0 КГц
Частота кадров : 31,250 кадров/сек (1536 SPF)
Метод сжатия : С потерями
Размер потока : 456 Мбайт (5%)
Заголовок : MVO HDRezka Studio @DD5.1 AC3, 640 Kbps, 48.0 KHz, 6 ch
Язык : Russian
Service kind : Complete Main
Default : Нет
Forced : Нет
Аудио #3
Идентификатор : 7
Формат : AC-3
Формат/Информация : Audio Coding 3
Коммерческое название : Dolby Digital
Идентификатор кодека : A_AC3
Продолжительность : 1 ч. 39 м.
Вид битрейта : Постоянный
Битрейт : 384 Кбит/сек
Каналы : 6 каналов
Channel layout : L R C LFE Ls Rs
Частота : 48,0 КГц
Частота кадров : 31,250 кадров/сек (1536 SPF)
Метод сжатия : С потерями
Размер потока : 274 Мбайт (3%)
Заголовок : DUB UKR Line @DD5.1 AC3, 384 Kbps, 48.0 KHz, 6 ch
Язык : Ukrainian
Service kind : Complete Main
Default : Нет
Forced : Нет
Аудио #4
Идентификатор : 8
Формат : AC-3
Формат/Информация : Audio Coding 3
Коммерческое название : Dolby Digital
Идентификатор кодека : A_AC3
Продолжительность : 1 ч. 39 м.
Вид битрейта : Постоянный
Битрейт : 640 Кбит/сек
Каналы : 6 каналов
Channel layout : L R C LFE Ls Rs
Частота : 48,0 КГц
Частота кадров : 31,250 кадров/сек (1536 SPF)
Метод сжатия : С потерями
Размер потока : 456 Мбайт (5%)
Заголовок : Original@DD5.1 AC3 , 640 Kbps, 48.0 KHz, 6 ch
Язык : English
Service kind : Complete Main
Default : Нет
Forced : Нет
Аудио #5
Идентификатор : 9
Формат : DTS ES XLL
Формат/Информация : Digital Theater Systems
Коммерческое название : DTS-HD Master Audio
Идентификатор кодека : A_DTS
Продолжительность : 1 ч. 39 м.
Вид битрейта : Переменный
Битрейт : 4 974 Кбит/сек
Каналы : 8 каналов
Channel layout : C L R Ls Rs LFE Lb Rb
Частота : 48,0 КГц
Частота кадров : 93,750 кадра/сек (512 SPF)
Битовая глубина : 24 бит
Метод сжатия : Без потерь
Задержка видео : 83 мс.
Размер потока : 3,46 Гбайт (40%)
Заголовок : Original@DTS-HD Master Audio , 4974 Kbps, 48.0 KHz, 8ch
Язык : English
Default : Нет
Forced : Нет
Текст #1
Идентификатор : 2
Формат : UTF-8
Идентификатор кодека : S_TEXT/UTF8
Идентификатор кодека/Информация : UTF-8 Plain Text
Продолжительность : 29 м. 48 с.
Битрейт : 2 бит/сек
Count of elements : 12
Размер потока : 553 байт (0%)
Заголовок : Russian-Forced
Язык : Russian
Default : Да
Forced : Нет
Текст #2
Идентификатор : 3
Формат : UTF-8
Идентификатор кодека : S_TEXT/UTF8
Идентификатор кодека/Информация : UTF-8 Plain Text
Продолжительность : 1 ч. 38 м.
Битрейт : 34 бит/сек
Count of elements : 765
Размер потока : 24,7 Кбайт (0%)
Заголовок : Russian- iTunes
Язык : Russian
Default : Нет
Forced : Нет
Текст #3
Идентификатор : 4
Формат : UTF-8
Идентификатор кодека : S_TEXT/UTF8
Идентификатор кодека/Информация : UTF-8 Plain Text
Продолжительность : 1 ч. 38 м.
Битрейт : 36 бит/сек
Count of elements : 815
Размер потока : 26,7 Кбайт (0%)
Заголовок : Russian- Enigma
Язык : Russian
Default : Нет
Forced : Нет
Текст #4
Идентификатор : 10
Формат : UTF-8
Идентификатор кодека : S_TEXT/UTF8
Идентификатор кодека/Информация : UTF-8 Plain Text
Продолжительность : 1 ч. 39 м.
Битрейт : 32 бит/сек
Count of elements : 1196
Размер потока : 23,4 Кбайт (0%)
Заголовок : Original - SDH
Язык : English
Default : Нет
Forced : Нет
Текст #5
Идентификатор : 11
Формат : UTF-8
Идентификатор кодека : S_TEXT/UTF8
Идентификатор кодека/Информация : UTF-8 Plain Text
Продолжительность : 1 ч. 38 м.
Битрейт : 23 бит/сек
Count of elements : 805
Размер потока : 17,0 Кбайт (0%)
Заголовок : Original
Язык : English
Default : Нет
Forced : Нет
Меню
00:00:00.000 : :Chapter 1
00:03:36.007 : :Chapter 2
00:05:58.733 : :Chapter 3
00:10:31.464 : :Chapter 4
00:15:49.823 : :Chapter 5
00:19:03.976 : :Chapter 6
00:23:29.658 : :Chapter 7
00:27:28.480 : :Chapter 8
00:32:27.946 : :Chapter 9
00:34:32.654 : :Chapter 10
00:41:43.918 : :Chapter 11
00:46:14.646 : :Chapter 12
00:50:07.462 : :Chapter 13
00:55:15.687 : :Chapter 14
01:00:31.044 : :Chapter 15
01:04:04.757 : :Chapter 16
01:07:47.104 : :Chapter 17
01:12:38.687 : :Chapter 18
01:17:02.159 : :Chapter 19
01:19:25.344 : :Chapter 20
01:23:07.232 : :Chapter 21
01:26:21.342 : :Chapter 22
01:29:26.319 : :Chapter 23
01:32:22.578 : :Chapter 24
--

Скриншоты

-- ---- -- --Релиз от: Nikolai.Baranov & PIRATIYA . Поблагодарить:
ЯД: 410017546713876
-- -- -- --Время раздачи : 24/7--

_________________

Легко быть оптимистом, когда судьба не валит с ног тяжелыми ударами, а лишь иногда легонько шлепает по заднице.
[Торрент-статистика]
[Профиль]  [ЛС] 
Показать сообщения:    
Ответить на тему

Текущее время: Сегодня 02:15

Часовой пояс: GMT + 4



Вы не можете начинать темы
Вы не можете отвечать на сообщения
Вы не можете редактировать свои сообщения
Вы не можете удалять свои сообщения
Вы не можете голосовать в опросах
Вы не можете прикреплять файлы к сообщениям
Вы не можете скачивать файлы