Джентльмены/ The Gentlemen (Гай Ричи) [2019, Боевик, комедия, криминал,BluRay - HEVC 1080p] [DUB iTunes +Goblin +HDrezka+Есарев ++Яроцкий + ENG]+[Subs Rus+ Ukr+ ENG]

Ответить на тему
 
Автор
Сообщение

Враг Нароода ®

Пол:

Стаж: 3 года 3 месяца

Сообщений: 232

Репутация: 291 [+] [-]

Откуда: Красногорск

Пост 29-Апр-2020 14:10

[Цитировать] 

---- Джентльмены/ The Gentlemen -- --Год выпуска: 2019
Выпущено: США , Miramax Films
Жанр: Боевик, комедия, криминал
Продолжительность: : 01:53:40--Озвучка #1: Дублированное [iTunes] - iTunes - Русский
Озвучка #2: Профессиональный многоголосый - HDrezka Studio - Русский
Озвучка #3:Авторский - Дмитрий Пучков- Goblin - Русский
Озвучка #4:Авторский - Дмитрий Есарев - Русский
Озвучка #5: Авторский - Михаил Яроцкий - Русский
Озвучка #6: Дублированное [iTunes] - iTunes - Украинский
Озвучка #7: Профессиональный многоголосый -Английский - Оригинал
Субтитры: Russian ,English, English SDH, украинские
--Релиз Без Рекламы - Ненормативная лексика --MDB 8.1 --Режиссеры:
Гай Ричи --В ролях: Мэттью МакКонахи, Чарли Ханнэм, Мишель Докери, Джереми Стронг, Лайн Рени, Колин Фаррелл, Генри Голдинг, Том Ву, Эдди Марсан, Хью Грант, Джейсон Вонг-- Один ушлый американец ещё со студенческих лет приторговывал наркотиками, а теперь придумал схему нелегального обогащения с использованием поместий обедневшей английской аристократии и очень неплохо на этом разбогател. Другой пронырливый журналист приходит к Рэю, правой руке американца, и предлагает тому купить киносценарий, в котором подробно описаны преступления его босса при участии других представителей лондонского криминального мира — партнёра-еврея, китайской диаспоры, чернокожих спортсменов и даже русского олигарха.-- --Качество :BluRay- HEVC 10bit - 1080p
Формат: MKV
Видео кодек: H265
Видео: 5554Кбит/сек,1920х804(2.40.1),в 23.976кадр/сек, HEVC (Main10@L4@Main)--Аудио Кодек:Аудио Кодек:AC3 , AAC LC
Аудио #1: DUB iTunes @DD5.1 AC3, 640 Kbps, 48.0 KHz, 6 ch - iTunes - Русский
Аудио #2: MVO HDRezka Studio @DD5.1 AC3, 640 Kbps, 48.0 KHz, 6 ch- HDRezka Studio - Русский
Аудио #3: AVO Дмитрий Пучков- Goblin @DD5.1 AC3, 640 Kbps, 48.0 KHz, 6 ch -Goblin- Русский
Аудио #4: VO М..Яроцкий @DD5.1 AC3, 640 Kbps, 48.0 KHz, 6 ch - М..Яроцкий - Русский
Аудио #5: DUB Ukr iTunes @DD5.1 AC3, 384 Kbps, 48.0 KHz, 6 ch - iTunes - Украинский
Аудио #6: VO Д. Есарев @DD5.1 AC3, 640 Kbps, 48.0 KHz, 6 ch -Д.
Есарев - Русский

Аудио #7: Original@AAC LC , 515 Kbps, 48.0 KHz, 8 ch - - English-

Доп. информация:

Звуковая дорожка сделана путем наложения чистого голоса озвучивателей на центральный канал оригинальной дорожки. Качество идентично звуковой дорожке.
--

MediaInfo

Общее
Уникальный идентификатор : 14291164439951483794537713964773981716 (0xAC060CEAB0F1D745E8CA60AA826BE14)
Полное имя : F:\Nikolai.Baranov & PIRATIYA\Джентльмены - The Gentlemen\The Gentlemen_2019_HEVC- 10Bit_Н265_DD5.1_N.B_BluRay_1080_DUB_5xRus_Ukr_Eng\The Gentlemen_HEVC_DD5.1_N.B_BluRay_1080__DUB_5xRus_Ukr_Eng.mkv
Формат : Matroska
Версия формата : Version 4
Размер файла : 7,67 Гбайт
Продолжительность : 1 ч. 53 м.
Общий поток : 9 655 Кбит/сек
Название фильма : The Gentlemen 2019 @ Nikolai.Baranov & PIRATIYA
Дата кодирования : UTC 2020-04-29 06:23:17
Программа кодирования : mkvmerge v45.0.0 ('Heaven in Pennies') 64-bit
Библиотека кодирования : libebml v1.3.10 + libmatroska v1.5.2 / Lavf58.20.100
Видео
Идентификатор : 1
Формат : HEVC
Формат/Информация : High Efficiency Video Coding
Профиль формата : Main 10@L4@Main
Идентификатор кодека : V_MPEGH/ISO/HEVC
Продолжительность : 1 ч. 53 м.
Битрейт : 5 554 Кбит/сек
Ширина : 1 920 пикселей
Высота : 804 пикселя
Соотношение сторон : 2,40:1
Режим частоты кадров : Постоянный
Частота кадров : 23,976 (24000/1001) кадра/сек
Цветовое пространство : YUV
Субдискретизация насыщенности : 4:2:0
Битовая глубина : 10 бит
Бит/(Пиксели*Кадры) : 0.150
Размер потока : 4,41 Гбайт (58%)
Заголовок : The Gentlemen_HEVC_DD5.1_N.B_BluRay_1080__DUB_5xRus_Ukr_Eng
Библиотека кодирования : x265 3.2+23-52135ffd9bcd:[Windows][GCC 9.2.0][64 bit] 10bit
Настройки программы : cpuid=1111039 / frame-threads=3 / numa-pools=8 / wpp / no-pmode / no-pme / no-psnr / no-ssim / log-level=2 / input-csp=1 / input-res=1920x804 / interlace=0 / total-frames=163518 / level-idc=0 / high-tier=1 / uhd-bd=0 / ref=4 / no-allow-non-conformance / no-repeat-headers / annexb / no-aud / no-hrd / info / hash=0 / no-temporal-layers / open-gop / min-keyint=23 / keyint=250 / gop-lookahead=0 / bframes=8 / b-adapt=2 / b-pyramid / bframe-bias=0 / rc-lookahead=25 / lookahead-slices=4 / scenecut=40 / hist-scenecut=0 / radl=0 / no-splice / no-intra-refresh / ctu=64 / min-cu-size=8 / rect / no-amp / max-tu-size=32 / tu-inter-depth=1 / tu-intra-depth=1 / limit-tu=0 / rdoq-level=2 / dynamic-rd=0.00 / no-ssim-rd / signhide / no-tskip / nr-intra=0 / nr-inter=0 / no-constrained-intra / strong-intra-smoothing / max-merge=3 / limit-refs=3 / limit-modes / me=3 / subme=3 / merange=57 / temporal-mvp / no-frame-dup / no-hme / weightp / no-weightb / no-analyze-src-pics / deblock=0:0 / no-sao / no-sao-non-deblock / rd=4 / selective-sao=0 / no-early-skip / rskip / no-fast-intra / no-tskip-fast / no-cu-lossless / no-b-intra / no-splitrd-skip / rdpenalty=0 / psy-rd=2.00 / psy-rdoq=1.00 / no-rd-refine / no-lossless / cbqpoffs=0 / crqpoffs=0 / rc=crf / crf=18.0 / qcomp=0.60 / qpstep=4 / stats-write=0 / stats-read=0 / ipratio=1.40 / pbratio=1.30 / aq-mode=3 / aq-strength=1.00 / cutree / zone-count=0 / no-strict-cbr / qg-size=32 / no-rc-grain / qpmax=69 / qpmin=0 / no-const-vbv / sar=0 / overscan=0 / videoformat=5 / range=0 / colorprim=2 / transfer=2 / colormatrix=2 / chromaloc=0 / display-window=0 / cll=0,0 / min-luma=0 / max-luma=1023 / log2-max-poc-lsb=8 / vui-timing-info / vui-hrd-info / slices=1 / no-opt-qp-pps / no-opt-ref-list-length-pps / no-multi-pass-opt-rps / scenecut-bias=0.05 / hist-threshold=0.01 / no-opt-cu-delta-qp / aq-motion / no-hdr / no-hdr-opt / no-dhdr10-opt / no-idr-recovery-sei / analysis-reuse-level=5 / scale-factor=0 / refine-intra=0 / refine-inter=0 / refine-mv=1 / refine-ctu-distortion=0 / no-limit-sao / ctu-info=0 / no-lowpass-dct / refine-analysis-type=0 / copy-pic=1 / max-ausize-factor=1.0 / no-dynamic-refine / no-single-sei / no-hevc-aq / no-svt / no-field / qp-adaptation-range=1.00 / no-scenecut-aware-qp
Язык : Russian
Default : Да
Forced : Нет
Аудио #1
Идентификатор : 4
Формат : AC-3
Формат/Информация : Audio Coding 3
Коммерческое название : Dolby Digital
Идентификатор кодека : A_AC3
Продолжительность : 1 ч. 53 м.
Вид битрейта : Постоянный
Битрейт : 640 Кбит/сек
Каналы : 6 каналов
Channel layout : L R C LFE Ls Rs
Частота : 48,0 КГц
Частота кадров : 31,250 кадров/сек (1536 SPF)
Метод сжатия : С потерями
Задержка видео : -83 мс.
Размер потока : 520 Мбайт (7%)
Заголовок : DUB iTunes @DD5.1 AC3, 640 Kbps, 48.0 KHz, 6 ch
Язык : Russian
Service kind : Complete Main
Default : Да
Forced : Нет
Аудио #2
Идентификатор : 5
Формат : AC-3
Формат/Информация : Audio Coding 3
Коммерческое название : Dolby Digital
Идентификатор кодека : A_AC3
Продолжительность : 1 ч. 53 м.
Вид битрейта : Постоянный
Битрейт : 640 Кбит/сек
Каналы : 6 каналов
Channel layout : L R C LFE Ls Rs
Частота : 48,0 КГц
Частота кадров : 31,250 кадров/сек (1536 SPF)
Метод сжатия : С потерями
Задержка видео : -83 мс.
Размер потока : 520 Мбайт (7%)
Заголовок : MVO HDRezka Studio @DD5.1 AC3, 640 Kbps, 48.0 KHz, 6 ch
Язык : Russian
Service kind : Complete Main
Default : Нет
Forced : Нет
Аудио #3
Идентификатор : 6
Формат : AC-3
Формат/Информация : Audio Coding 3
Коммерческое название : Dolby Digital
Идентификатор кодека : A_AC3
Продолжительность : 1 ч. 53 м.
Вид битрейта : Постоянный
Битрейт : 640 Кбит/сек
Каналы : 6 каналов
Channel layout : L R C LFE Ls Rs
Частота : 48,0 КГц
Частота кадров : 31,250 кадров/сек (1536 SPF)
Метод сжатия : С потерями
Задержка видео : -83 мс.
Размер потока : 520 Мбайт (7%)
Заголовок : AVO Дмитрий Пучков- Goblin @DD5.1 AC3, 640 Kbps, 48.0 KHz, 6 ch
Язык : Russian
Service kind : Complete Main
Default : Нет
Forced : Нет
Аудио #4
Идентификатор : 7
Формат : AC-3
Формат/Информация : Audio Coding 3
Коммерческое название : Dolby Digital
Идентификатор кодека : A_AC3
Продолжительность : 1 ч. 53 м.
Вид битрейта : Постоянный
Битрейт : 640 Кбит/сек
Каналы : 6 каналов
Channel layout : L R C LFE Ls Rs
Частота : 48,0 КГц
Частота кадров : 31,250 кадров/сек (1536 SPF)
Метод сжатия : С потерями
Задержка видео : -83 мс.
Размер потока : 520 Мбайт (7%)
Заголовок : VO Д. Есарев @DD5.1 AC3, 640 Kbps, 48.0 KHz, 6 ch
Язык : Russian
Service kind : Complete Main
Default : Нет
Forced : Нет
Аудио #5
Идентификатор : 8
Формат : AC-3
Формат/Информация : Audio Coding 3
Коммерческое название : Dolby Digital
Идентификатор кодека : A_AC3
Продолжительность : 1 ч. 53 м.
Вид битрейта : Постоянный
Битрейт : 640 Кбит/сек
Каналы : 6 каналов
Channel layout : L R C LFE Ls Rs
Частота : 48,0 КГц
Частота кадров : 31,250 кадров/сек (1536 SPF)
Метод сжатия : С потерями
Задержка видео : -83 мс.
Размер потока : 518 Мбайт (7%)
Заголовок : VO М..Яроцкий @DD5.1 AC3, 640 Kbps, 48.0 KHz, 6 ch
Язык : Russian
Service kind : Complete Main
Default : Нет
Forced : Нет
Аудио #6
Идентификатор : 9
Формат : AC-3
Формат/Информация : Audio Coding 3
Коммерческое название : Dolby Digital
Идентификатор кодека : A_AC3
Продолжительность : 1 ч. 53 м.
Вид битрейта : Постоянный
Битрейт : 384 Кбит/сек
Каналы : 6 каналов
Channel layout : L R C LFE Ls Rs
Частота : 48,0 КГц
Частота кадров : 31,250 кадров/сек (1536 SPF)
Метод сжатия : С потерями
Задержка видео : -83 мс.
Размер потока : 312 Мбайт (4%)
Заголовок : DUB Ukr iTunes @DD5.1 AC3, 384 Kbps, 48.0 KHz, 6 ch
Язык : Ukrainian
Service kind : Complete Main
Default : Нет
Forced : Нет
Аудио #7
Идентификатор : 11
Формат : AAC LC
Формат/Информация : Advanced Audio Codec Low Complexity
Идентификатор кодека : A_AAC-2
Продолжительность : 1 ч. 53 м.
Битрейт : 515 Кбит/сек
Каналы : 8 каналов
Channel layout : C L R Ls Rs Lb Rb LFE
Частота : 48,0 КГц
Частота кадров : 46,875 кадров/сек (1024 SPF)
Метод сжатия : С потерями
Задержка видео : 20 мс.
Размер потока : 418 Мбайт (5%)
Заголовок : Original@AAC LC , 515 Kbps, 48.0 KHz, 8 ch
Язык : English
Default : Нет
Forced : Нет
Текст #1
Идентификатор : 2
Формат : UTF-8
Идентификатор кодека : S_TEXT/UTF8
Идентификатор кодека/Информация : UTF-8 Plain Text
Продолжительность : 1 ч. 45 м.
Битрейт : 4 бит/сек
Count of elements : 46
Размер потока : 3,37 Кбайт (0%)
Заголовок : Russian-Forced
Язык : Russian
Default : Да
Forced : Нет
Текст #2
Идентификатор : 3
Формат : UTF-8
Идентификатор кодека : S_TEXT/UTF8
Идентификатор кодека/Информация : UTF-8 Plain Text
Продолжительность : 1 ч. 47 м.
Битрейт : 127 бит/сек
Count of elements : 1711
Размер потока : 101 Кбайт (0%)
Заголовок : Russian
Язык : Russian
Default : Нет
Forced : Нет
Текст #3
Идентификатор : 10
Формат : UTF-8
Идентификатор кодека : S_TEXT/UTF8
Идентификатор кодека/Информация : UTF-8 Plain Text
Продолжительность : 1 ч. 47 м.
Битрейт : 135 бит/сек
Count of elements : 1992
Размер потока : 107 Кбайт (0%)
Заголовок : Ukr
Язык : Ukrainian
Default : Нет
Forced : Нет
Текст #4
Идентификатор : 12
Формат : UTF-8
Идентификатор кодека : S_TEXT/UTF8
Идентификатор кодека/Информация : UTF-8 Plain Text
Продолжительность : 1 ч. 50 м.
Битрейт : 94 бит/сек
Count of elements : 2088
Размер потока : 76,8 Кбайт (0%)
Заголовок : Original - SDH
Default : Нет
Forced : Нет
Текст #5
Идентификатор : 13
Формат : UTF-8
Идентификатор кодека : S_TEXT/UTF8
Идентификатор кодека/Информация : UTF-8 Plain Text
Продолжительность : 1 ч. 47 м.
Битрейт : 84 бит/сек
Count of elements : 1812
Размер потока : 67,0 Кбайт (0%)
Заголовок : Original
Язык : English
Default : Нет
Forced : Нет
Меню
00:00:00.000 : en:Chapter 01
00:04:27.225 : en:Chapter 02
00:08:16.412 : en:Chapter 03
00:13:42.780 : en:Chapter 04
00:19:21.493 : en:Chapter 05
00:24:49.988 : en:Chapter 06
00:30:23.530 : en:Chapter 07
00:37:17.944 : en:Chapter 08
00:41:55.429 : en:Chapter 09
00:48:38.874 : en:Chapter 10
00:56:51.199 : en:Chapter 11
01:03:34.101 : en:Chapter 12
01:08:45.037 : en:Chapter 13
01:14:18.203 : en:Chapter 14
01:19:05.991 : en:Chapter 15
01:24:30.023 : en:Chapter 16
01:29:24.776 : en:Chapter 17
01:34:21.113 : en:Chapter 18
01:40:11.130 : en:Chapter 19
01:48:37.469 : en:Chapter 20
--

Скриншоты

-- ---- -- --Релиз от: Nikolai.Baranov & PIRATIYA . Поблагодарить:
ЯД: 410017546713876
-- -- -- --Время раздачи : 24/7--

_________________

Легко быть оптимистом, когда судьба не валит с ног тяжелыми ударами, а лишь иногда легонько шлепает по заднице.
[Торрент-статистика]
[Профиль]  [ЛС] 
Показать сообщения:    
Ответить на тему

Текущее время: Сегодня 10:06

Часовой пояс: GMT + 4



Вы не можете начинать темы
Вы не можете отвечать на сообщения
Вы не можете редактировать свои сообщения
Вы не можете удалять свои сообщения
Вы не можете голосовать в опросах
Вы не можете прикреплять файлы к сообщениям
Вы не можете скачивать файлы