Плохие парни навсегда/ Bad Boys for Life (Адиль Эль Арби, Билал Фалла) [2020, Боевик, триллер, комедия, криминал,WEB-DLRip - HEVC 1080p] [DUB Пифагор+Ukr iTunes +Zamez+HDrezka+ENG]+[Subs Rus , Ukr, ENG]

Ответить на тему
 
Автор
Сообщение

Враг Нароода ®

Пол:

Стаж: 3 года 3 месяца

Сообщений: 233

Репутация: 291 [+] [-]

Откуда: Красногорск

Пост 04-Апр-2020 11:29

[Цитировать] 

---- Плохие парни навсегда/ Bad Boys for Life -- --Год выпуска: 2020
Выпущено: США, Мексика, Columbia Pictures, 2.0 Entertainment, Columbia Pictures Mexico
Жанр: Боевик, триллер, комедия, криминал
Продолжительность: : 02:03:55--Озвучка #1: Профессиональный многоголосый - HDrezka Studio - Русский
Озвучка #2:Дублированный - Пифагор - Русский
Озвучка #3: Любительский одноголосый - Zamez - Русский
Озвучка #4: Дублированный - украинский
Озвучка #5: Профессиональный многоголосый -Английский - Оригинал
Субтитры: Русские, английские, украинские
-- Релиз Без Рекламы - Ненормативная лексика --MDB 7.0 --Режиссеры:
Адиль Эль Арби, Билал Фалла --В ролях: Уилл Смит, Мартин Лоуренс, Александр Людвиг, Ванесса Энн Хадженс, Майкл Бэй, Джо Пантолиано, Паола Нуньес, Чарльз Мелтон, Кейт дель Кастильо, Ники Джем, Джейкоб Скипио-- Детективы Майк Лоури и Маркус Бёрнетт снова в деле! Правда, их отстраняют от всех операций, но разве отчаянных друзей когда-нибудь что-либо останавливало? Ведь на этот раз на Майка открывает охоту некто из его прошлой жизни. Так что парням придется отжечь по полной!-- --Качество :WEB-DLRip - HEVC 10bit - 1080p
Формат: MKV
Видео кодек: H265
Видео: 2564Кбит/сек,1920х800(2.40.1),в 23.976кадр/сек, HEVC (Main10@L4@Hign)--Аудио Кодек:AC3
Аудио #1: MVO HDRezka Studio @DD5.1 AC3, 640 Kbps, 48.0 KHz, 6 ch - HDrezka Studio -Русский
Аудио #2: Dub iTunes, Пифагор @DD5.1 AC3, 640 , Kbps, 48.0 KHz, 6 ch- Пифагор -Русский
Аудио #3: VO Zamez @DD5.1 AC3, 640 Kbps, 48.0 KHz, 6 ch - Zamez -Русский
Аудио #4: Ukr iTunes @DD5.1 AC3, 384 Kbps, 48.0 KHz, 6 ch- Ukr iTunes -украинский
Аудио #5: Original@DD5.1 E-AC3 , 640 Kbps, 48.0 KHz, 6 ch - English - Оригинал--

Доп. информация:

Звуковая дорожка сделана путем наложения чистого голоса озвучивателей на центральный канал оригинальной дорожки. Качество идентично звуковой дорожке.
--

MediaInfo

Общее
Уникальный идентификатор : 238532698805194847250224061390450068758 (0xB373BA0B44B7ED23E11EB1B6D6B00D16)
Полное имя : E:\RussianPatriot\Плохие парни навсегда - Bad Boys for Life\Bad_Boys_For_Life_2020_HEVC- 10Bit_Н265_DD5.1_N.B_HD_1080_DUB_3xRus_Eng\Bad_Boys_For_Life_HEVC_Н265_DD5.1_N.B_HD_1080_Dub_3xRus_Ukr_Eng.mkv
Формат : Matroska
Версия формата : Version 4
Размер файла : 4,77 Гбайт
Продолжительность : 2 ч. 3 м.
Общий поток : 5 511 Кбит/сек
Название фильма : Bad Boys for Life 2020 @ Nikolai.Baranov & PIRATIYA
Дата кодирования : UTC 2020-04-03 14:07:49
Программа кодирования : mkvmerge v44.0.0 ('Domino') 64-bit
Библиотека кодирования : libebml v1.3.10 + libmatroska v1.5.2 / Lavf58.20.100
Видео
Идентификатор : 1
Формат : HEVC
Формат/Информация : High Efficiency Video Coding
Профиль формата : Main 10@L4@High
Идентификатор кодека : V_MPEGH/ISO/HEVC
Продолжительность : 2 ч. 3 м.
Битрейт : 2 564 Кбит/сек
Ширина : 1 920 пикселей
Высота : 800 пикселей
Соотношение сторон : 2,40:1
Режим частоты кадров : Постоянный
Частота кадров : 23,976 (24000/1001) кадра/сек
Цветовое пространство : YUV
Субдискретизация насыщенности : 4:2:0
Битовая глубина : 10 бит
Бит/(Пиксели*Кадры) : 0.070
Размер потока : 2,22 Гбайт (47%)
Заголовок : Bad_Boys_For_Life_HEVC_Н265_DD5.1_N.B_HD_1080_Dub_3xRus_Ukr_Eng
Библиотека кодирования : x265 3.3+2-gbe2d82093:[Windows][GCC 9.2.0][64 bit] 10bit
Настройки программы : cpuid=1111039 / frame-threads=5 / numa-pools=16 / wpp / no-pmode / no-pme / no-psnr / no-ssim / log-level=2 / input-csp=1 / input-res=1920x800 / interlace=0 / total-frames=178305 / level-idc=40 / high-tier=1 / uhd-bd=0 / ref=3 / no-allow-non-conformance / repeat-headers / annexb / aud / hrd / info / hash=0 / no-temporal-layers / no-open-gop / min-keyint=24 / keyint=240 / gop-lookahead=0 / bframes=4 / b-adapt=2 / b-pyramid / bframe-bias=0 / rc-lookahead=25 / lookahead-slices=4 / scenecut=40 / hist-scenecut=0 / radl=0 / no-splice / no-intra-refresh / ctu=64 / min-cu-size=8 / no-rect / no-amp / max-tu-size=32 / tu-inter-depth=1 / tu-intra-depth=1 / limit-tu=0 / rdoq-level=2 / dynamic-rd=0.00 / no-ssim-rd / signhide / no-tskip / nr-intra=0 / nr-inter=0 / no-constrained-intra / no-strong-intra-smoothing / max-merge=3 / limit-refs=1 / limit-modes / me=1 / subme=3 / merange=35 / temporal-mvp / no-frame-dup / no-hme / weightp / no-weightb / no-analyze-src-pics / deblock=-3:-3 / no-sao / no-sao-non-deblock / rd=4 / selective-sao=0 / early-skip / rskip / no-fast-intra / no-tskip-fast / no-cu-lossless / b-intra / no-splitrd-skip / rdpenalty=0 / psy-rd=2.00 / psy-rdoq=0.00 / no-rd-refine / no-lossless / cbqpoffs=0 / crqpoffs=0 / rc=abr / bitrate=2560 / qcomp=0.60 / qpstep=4 / stats-write=0 / stats-read=0 / vbv-maxrate=20000 / vbv-bufsize=19500 / vbv-init=0.9 / ipratio=1.40 / pbratio=1.30 / aq-mode=2 / aq-strength=1.00 / cutree / zone-count=0 / no-strict-cbr / qg-size=32 / no-rc-grain / qpmax=69 / qpmin=0 / no-const-vbv / sar=0 / overscan=0 / videoformat=5 / range=0 / colorprim=1 / transfer=2 / colormatrix=1 / chromaloc=0 / display-window=0 / cll=0,0 / min-luma=0 / max-luma=1023 / log2-max-poc-lsb=8 / vui-timing-info / vui-hrd-info / slices=1 / no-opt-qp-pps / no-opt-ref-list-length-pps / no-multi-pass-opt-rps / scenecut-bias=0.00 / hist-threshold=0.01 / no-opt-cu-delta-qp / no-aq-motion / no-hdr10 / no-hdr10-opt / no-dhdr10-opt / no-idr-recovery-sei / analysis-reuse-level=0 / analysis-save-reuse-level=0 / analysis-load-reuse-level=0 / scale-factor=0 / refine-intra=0 / refine-inter=0 / refine-mv=1 / refine-ctu-distortion=0 / no-limit-sao / ctu-info=0 / no-lowpass-dct / refine-analysis-type=0 / copy-pic=1 / max-ausize-factor=1.0 / no-dynamic-refine / no-single-sei / no-hevc-aq / no-svt / no-field / qp-adaptation-range=1.00 / no-scenecut-aware-qpconformance-window-offsets / right=0 / bottom=0
Язык : Russian
Default : Да
Forced : Нет
Цветовой диапазон : Limited
Основные цвета : BT.709
Коэффициенты матрицы : BT.709
Аудио #1
Идентификатор : 4
Формат : AC-3
Формат/Информация : Audio Coding 3
Коммерческое название : Dolby Digital
Идентификатор кодека : A_AC3
Продолжительность : 2 ч. 3 м.
Вид битрейта : Постоянный
Битрейт : 640 Кбит/сек
Каналы : 6 каналов
Channel layout : L R C LFE Ls Rs
Частота : 48,0 КГц
Частота кадров : 31,250 кадров/сек (1536 SPF)
Метод сжатия : С потерями
Задержка видео : -83 мс.
Размер потока : 567 Мбайт (12%)
Заголовок : Dub iTunes, Пифагор @DD5.1 AC3, 640 , Kbps, 48.0 KHz, 6 ch
Язык : Russian
Service kind : Complete Main
Default : Да
Forced : Нет
Аудио #2
Идентификатор : 5
Формат : AC-3
Формат/Информация : Audio Coding 3
Коммерческое название : Dolby Digital
Идентификатор кодека : A_AC3
Продолжительность : 2 ч. 3 м.
Вид битрейта : Постоянный
Битрейт : 640 Кбит/сек
Каналы : 6 каналов
Channel layout : L R C LFE Ls Rs
Частота : 48,0 КГц
Частота кадров : 31,250 кадров/сек (1536 SPF)
Метод сжатия : С потерями
Задержка видео : -83 мс.
Размер потока : 567 Мбайт (12%)
Заголовок : MVO HDRezka Studio @DD5.1 AC3, 640 Kbps, 48.0 KHz, 6 ch
Язык : Russian
Service kind : Complete Main
Default : Нет
Forced : Нет
Аудио #3
Идентификатор : 6
Формат : AC-3
Формат/Информация : Audio Coding 3
Коммерческое название : Dolby Digital
Идентификатор кодека : A_AC3
Продолжительность : 2 ч. 3 м.
Вид битрейта : Постоянный
Битрейт : 640 Кбит/сек
Каналы : 6 каналов
Channel layout : L R C LFE Ls Rs
Частота : 48,0 КГц
Частота кадров : 31,250 кадров/сек (1536 SPF)
Метод сжатия : С потерями
Задержка видео : -83 мс.
Размер потока : 567 Мбайт (12%)
Заголовок : VO Zamez @DD5.1 AC3, 640 Kbps, 48.0 KHz, 6 ch
Язык : Russian
Service kind : Complete Main
Default : Нет
Forced : Нет
Аудио #4
Идентификатор : 7
Формат : AC-3
Формат/Информация : Audio Coding 3
Коммерческое название : Dolby Digital
Идентификатор кодека : A_AC3
Продолжительность : 2 ч. 3 м.
Вид битрейта : Постоянный
Битрейт : 384 Кбит/сек
Каналы : 6 каналов
Channel layout : L R C LFE Ls Rs
Частота : 48,0 КГц
Частота кадров : 31,250 кадров/сек (1536 SPF)
Метод сжатия : С потерями
Задержка видео : -83 мс.
Размер потока : 340 Мбайт (7%)
Заголовок : DUB Ukr iTunes @DD5.1 AC3, 384 Kbps, 48.0 KHz, 6 ch
Язык : Ukrainian
Service kind : Complete Main
Default : Нет
Forced : Нет
Аудио #5
Идентификатор : 8
Формат : E-AC-3
Формат/Информация : Enhanced AC-3
Коммерческое название : Dolby Digital Plus
Идентификатор кодека : A_EAC3
Продолжительность : 2 ч. 3 м.
Вид битрейта : Постоянный
Битрейт : 640 Кбит/сек
Каналы : 6 каналов
Channel layout : L R C LFE Ls Rs
Частота : 48,0 КГц
Частота кадров : 31,250 кадров/сек (1536 SPF)
Метод сжатия : С потерями
Задержка видео : -83 мс.
Размер потока : 567 Мбайт (12%)
Заголовок : Original@DD5.1 E-AC3 , 640 Kbps, 48.0 KHz, 6 ch
Язык : English
Service kind : Complete Main
Default : Нет
Forced : Нет
Текст #1
Идентификатор : 2
Формат : UTF-8
Идентификатор кодека : S_TEXT/UTF8
Идентификатор кодека/Информация : UTF-8 Plain Text
Продолжительность : 2 ч. 0 м.
Битрейт : 4 бит/сек
Count of elements : 91
Размер потока : 4,27 Кбайт (0%)
Заголовок : Russian-Forced
Язык : Russian
Default : Да
Forced : Нет
Текст #2
Идентификатор : 3
Формат : UTF-8
Идентификатор кодека : S_TEXT/UTF8
Идентификатор кодека/Информация : UTF-8 Plain Text
Продолжительность : 2 ч. 2 м.
Битрейт : 91 бит/сек
Count of elements : 1794
Размер потока : 82,6 Кбайт (0%)
Заголовок : Russian
Язык : Russian
Default : Нет
Forced : Нет
Текст #3
Идентификатор : 9
Формат : UTF-8
Идентификатор кодека : S_TEXT/UTF8
Идентификатор кодека/Информация : UTF-8 Plain Text
Продолжительность : 1 ч. 58 м.
Битрейт : 4 бит/сек
Count of elements : 79
Размер потока : 3,65 Кбайт (0%)
Заголовок : Ukr-Forced
Язык : Ukrainian
Default : Нет
Forced : Нет
Текст #4
Идентификатор : 10
Формат : UTF-8
Идентификатор кодека : S_TEXT/UTF8
Идентификатор кодека/Информация : UTF-8 Plain Text
Продолжительность : 1 ч. 58 м.
Битрейт : 4 бит/сек
Count of elements : 79
Размер потока : 3,65 Кбайт (0%)
Заголовок : Ukr
Язык : Ukrainian
Default : Нет
Forced : Нет
Текст #5
Идентификатор : 11
Формат : UTF-8
Идентификатор кодека : S_TEXT/UTF8
Идентификатор кодека/Информация : UTF-8 Plain Text
Продолжительность : 1 ч. 45 м.
Битрейт : 2 бит/сек
Count of elements : 77
Размер потока : 2,22 Кбайт (0%)
Заголовок : Eng-Forced
Язык : English
Default : Нет
Forced : Нет
Текст #6
Идентификатор : 12
Формат : UTF-8
Идентификатор кодека : S_TEXT/UTF8
Идентификатор кодека/Информация : UTF-8 Plain Text
Продолжительность : 2 ч. 1 м.
Битрейт : 80 бит/сек
Count of elements : 2225
Размер потока : 71,4 Кбайт (0%)
Заголовок : Original - SDH
Язык : English
Default : Нет
Forced : Нет
Текст #7
Идентификатор : 13
Формат : UTF-8
Идентификатор кодека : S_TEXT/UTF8
Идентификатор кодека/Информация : UTF-8 Plain Text
Продолжительность : 1 ч. 57 м.
Битрейт : 59 бит/сек
Count of elements : 1547
Размер потока : 50,9 Кбайт (0%)
Заголовок : Original
Язык : English
Default : Нет
Forced : Нет
Меню
00:00:00.000 : en:1
00:07:33.203 : en:2
00:14:56.646 : en:3
00:23:43.255 : en:4
00:31:05.613 : en:5
00:38:43.069 : en:6
00:45:26.347 : en:7
00:53:27.327 : en:8
01:00:22.033 : en:9
01:07:29.250 : en:10
01:12:55.159 : en:11
01:22:12.340 : en:12
01:29:49.087 : en:13
01:36:47.797 : en:14
01:42:08.576 : en:15
01:53:55.908 : en:16
--

Скриншоты

-- ---- -- --Релиз от: Nikolai.Baranov & PIRATIYA . Поблагодарить:
ЯД: 410017546713876
-- -- -- --Время раздачи : 24/7--

_________________

Легко быть оптимистом, когда судьба не валит с ног тяжелыми ударами, а лишь иногда легонько шлепает по заднице.
[Торрент-статистика]
[Профиль]  [ЛС] 
Показать сообщения:    
Ответить на тему

Текущее время: Сегодня 02:11

Часовой пояс: GMT + 4



Вы не можете начинать темы
Вы не можете отвечать на сообщения
Вы не можете редактировать свои сообщения
Вы не можете удалять свои сообщения
Вы не можете голосовать в опросах
Вы не можете прикреплять файлы к сообщениям
Вы не можете скачивать файлы