Путь: Во все тяжкие / El Camino: A Breaking Bad Movie (Винс Гиллиган) [2019,Драма, криминал,WEB-DL,HEVC,HDR 1080р] [LostFilm+Jaskier+Kubik v Kubike+IdeaFilm+HamsterStudio+Flarrow Films+ENG]+[Subs Rus+ENG]

Ответить на тему
 
Автор
Сообщение

Враг Нароода ®

Пол:

Стаж: 3 года 3 месяца

Сообщений: 232

Репутация: 291 [+] [-]

Откуда: Красногорск

Пост 18-Окт-2019 10:10

[Цитировать] 

-- Путь: Во все тяжкие / El Camino: A Breaking Bad Movie -- --Год выпуска: 2019
Выпущено: США , American Movie Classics (AMC), NetFlix, Sony Pictures Television
Жанр: Драма, криминал
Продолжительность: 02:02:42--Озвучка #1:Профессиональный (многоголосый закадровый)- LostFilm - Русский
Озвучка #2:Профессиональный (многоголосый закадровый)- Jaskier - Русский
Озвучка #3:Профессиональный (многоголосый закадровый)- IdeaFilm - Русский
Озвучка #4:Профессиональный (двухголосый закадровый)- Кубик в Кубе - Русский
Озвучка #5:Любительский (многоголосый закадровый)- HamsterStudio - Русский
Озвучка #6:Любительский (многоголосый закадровый)- Flarrow Films - Русский
Озвучка #7: Профессиональный многоголосый -Английский - Оригинал
Субтитры: Русские, ,English, English SDH
--Релиз Релиз Без Рекламы - В сериале Ненормативная лексика --MDB 7.7 --Режиссеры:
Винс Гиллиган--В ролях: Аарон Пол, Чарльз Бейкер, Джесси Племонс, Кристен Риттер, Мэтт Эл Джонс, Тодд Терри, Скотт МакАртур, Том Бауэр, Кевин Рэнкин, Ларри Ханкин, Тесс Харпер, Глория Сандовал, Майкл Бофшевер, Марла Гиббс, Брендан Секстон, Джонни Ортиз, Роберт Форстер, Брайан Крэнстон, Крис Билсма, Дэвид Мэтти, Джонатан Бэнкс, Скотт Шеперд (II), Даниэлла Тодеско, Мэтью Ван Уэттеринг, Коди Рене Камерон, Элисон Лоу, Габриэла Алисия Ортега-- Фильм является продолжением легендарного сериала, полюбившегося миллионам зрителей по всему миру. Сюжет вертится вокруг Джесси Пинкмана, который совершает отчаянный побег. Он давно мечтал оказаться на свободе и ему удалось добиться своего. Вот только скрыться от неонацистов, лишивших его свободы, будет крайне непросто. К тому же по его следам идет полиция, и призраки прошлого не собираются оставлять его в покое. Продолжить свой жизненный путь в этом мире будет не просто, но жажда свободы придает Джесси сил. Каждый раз он уходит от своих преследователей, но как долго герой сможет водить за нос полицию и врагов?..-- --Качество :WEB-DL - HEVC-HDR- 10bit - 1080p
Формат: MKV
Видео кодек: H265
Видео: 5013Кбит/сек,1920х1080(16.9),в 24.000кадр/сек, HEVC (Main10@L4@Main@Main) , HDR10--Аудио Кодек:Аудио Кодек:AC3
Аудио #1: MVO LostFilm @DD5.1 AC3, 384 Kbps, 48.0 KHz, 6 chh - LostFilm- Русский
Аудио #2: MVO Jaskier @DD5.1 AC3, 384 Kbps, 48.0 KHz, 6 ch -Jaskier- Русский
Аудио #3: DVO Kubik v Kubike @DD5.1 AC3, 384 Kbps, 48.0 KHz, 6 chr -Kubik v Kubike- Русский
Аудио #4: MVO IdeaFilm @DD5.1 AC3, 384 Kbps, 48.0 KHz, 6 ch -IdeaFilm- Русский
Аудио #5: MVO HamsterStudio @DD5.1 AC3, 384 Kbps, 48.0 KHz, 6 ch -HamsterStudio- Русский
Аудио #6: MVO Flarrow Films @DD5.1 AC3, 384 Kbps, 48.0 KHz, 6 ch -Flarrow Films- Русский
Аудио #7:Original@DD5.1 E-AC3 , 768 Kbps, 48.0 KHz, 6 ch - - English-

Доп. информация:

Звуковая дорожка сделана путем наложения чистого голоса озвучивателей на центральный канал оригинальной дорожки. Качество идентично звуковой дорожке.
--

MediaInfo

Общее
Уникальный идентификатор : 216371606621249286336452078368623158209 (0xA2C7A7D769EFB9305E42C61DD76BE3C1)
Полное имя : C:\RussianPatriot\Путь Во все тяжкие - El Camino A Breaking Bad Movie\El.Camino.A.Breaking.Bad.Movie.2019_HEVC_HDR_DD5.1_N.B_WEB-DL_1080_6хRus_Eng\El.Camino.A.Breaking.Bad.Movie.2019_HEVC_HDR_DD5.1_N.B_WEB-DL_1080_6хRus_Eng.mkv
Формат : Matroska
Версия формата : Version 4
Размер файла : 7,11 Гбайт
Продолжительность : 2 ч. 2 м.
Общий поток : 8300 Кбит/сек
Название фильма : El Camino A Breaking Bad Movie 2019 @ Nikolai.Baranov & PIRATIYA
Дата кодирования : UTC 2019-10-17 15:38:29
Программа кодирования : mkvmerge v38.0.0 ('The Silent Type') 64-bit
Библиотека кодирования : libebml v1.3.9 + libmatroska v1.5.2 / Lavf58.20.100
Видео
Идентификатор : 1
Формат : HEVC
Формат/Информация : High Efficiency Video Coding
Профиль формата : Main 10@L4@Main
HDR_Format/String : SMPTE ST 2086, HDR10 compatible
Идентификатор кодека : V_MPEGH/ISO/HEVC
Продолжительность : 2 ч. 2 м.
Битрейт : 5244 Кбит/сек
Ширина : 1920 пикселей
Высота : 1080 пикселей
Соотношение сторон : 16:9
Режим частоты кадров : Постоянный
Частота кадров : 24,000 кадра/сек
Цветовое пространство : YUV
Субдискретизация насыщенности : 4:2:0 (Type 2)
Битовая глубина : 10 бит
Бит/(Пиксели*Кадры) : 0.105
Размер потока : 4,48 Гбайт (63%)
Заголовок : El.Camino.A.Breaking.Bad.Movie.2019_HEVC_HDR_DD5.1_N.B_WEB-DL_1080_6хRus_Eng
Язык : Russian
Default : Да
Forced : Нет
Цветовой диапазон : Limited
Основные цвета : BT.2020
Характеристики трансфера : PQ
Коэффициенты матрицы : BT.2020 non-constant
MasteringDisplay_ColorPrimaries : Display P3
MasteringDisplay_Luminance : min: 0.0050 cd/m2, max: 4000 cd/m2
MaxCLL : 4850 cd/m2
MaxFALL : 1668 cd/m2
Аудио #1
Идентификатор : 5
Формат : AC-3
Формат/Информация : Audio Coding 3
Коммерческое название : Dolby Digital
Идентификатор кодека : A_AC3
Продолжительность : 2 ч. 2 м.
Вид битрейта : Постоянный
Битрейт : 384 Кбит/сек
Каналы : 6 каналов
ChannelLayout : L R C LFE Ls Rs
Частота : 48,0 КГц
Частота кадров : 31,250 кадров/сек (1536 SPF)
Метод сжатия : С потерями
Задержка видео : -83 мс.
Размер потока : 337 Мбайт (5%)
Заголовок : MVO LostFilm @DD5.1 AC3, 384 Kbps, 48.0 KHz, 6 ch
Язык : Russian
ServiceKind/String : Complete Main
Default : Да
Forced : Нет
Аудио #2
Идентификатор : 6
Формат : AC-3
Формат/Информация : Audio Coding 3
Коммерческое название : Dolby Digital
Идентификатор кодека : A_AC3
Продолжительность : 2 ч. 2 м.
Вид битрейта : Постоянный
Битрейт : 384 Кбит/сек
Каналы : 6 каналов
ChannelLayout : L R C LFE Ls Rs
Частота : 48,0 КГц
Частота кадров : 31,250 кадров/сек (1536 SPF)
Метод сжатия : С потерями
Задержка видео : -83 мс.
Размер потока : 337 Мбайт (5%)
Заголовок : MVO Jaskier @DD5.1 AC3, 384 Kbps, 48.0 KHz, 6 ch
Язык : Russian
ServiceKind/String : Complete Main
Default : Нет
Forced : Нет
Аудио #3
Идентификатор : 7
Формат : AC-3
Формат/Информация : Audio Coding 3
Коммерческое название : Dolby Digital
Идентификатор кодека : A_AC3
Продолжительность : 2 ч. 2 м.
Вид битрейта : Постоянный
Битрейт : 384 Кбит/сек
Каналы : 6 каналов
ChannelLayout : L R C LFE Ls Rs
Частота : 48,0 КГц
Частота кадров : 31,250 кадров/сек (1536 SPF)
Метод сжатия : С потерями
Задержка видео : -83 мс.
Размер потока : 337 Мбайт (5%)
Заголовок : DVO Kubik v Kubike @DD5.1 AC3, 384 Kbps, 48.0 KHz, 6 ch
Язык : Russian
ServiceKind/String : Complete Main
Default : Нет
Forced : Нет
Аудио #4
Идентификатор : 8
Формат : AC-3
Формат/Информация : Audio Coding 3
Коммерческое название : Dolby Digital
Идентификатор кодека : A_AC3
Продолжительность : 2 ч. 2 м.
Вид битрейта : Постоянный
Битрейт : 384 Кбит/сек
Каналы : 6 каналов
ChannelLayout : L R C LFE Ls Rs
Частота : 48,0 КГц
Частота кадров : 31,250 кадров/сек (1536 SPF)
Метод сжатия : С потерями
Задержка видео : -83 мс.
Размер потока : 337 Мбайт (5%)
Заголовок : MVO Flarrow Films @DD5.1 AC3, 384 Kbps, 48.0 KHz, 6 ch
Язык : Russian
ServiceKind/String : Complete Main
Default : Нет
Forced : Нет
Аудио #5
Идентификатор : 9
Формат : AC-3
Формат/Информация : Audio Coding 3
Коммерческое название : Dolby Digital
Идентификатор кодека : A_AC3
Продолжительность : 2 ч. 2 м.
Вид битрейта : Постоянный
Битрейт : 384 Кбит/сек
Каналы : 6 каналов
ChannelLayout : L R C LFE Ls Rs
Частота : 48,0 КГц
Частота кадров : 31,250 кадров/сек (1536 SPF)
Метод сжатия : С потерями
Задержка видео : -83 мс.
Размер потока : 337 Мбайт (5%)
Заголовок : MVO IdeaFilm @DD5.1 AC3, 384 Kbps, 48.0 KHz, 6 ch
Язык : Russian
ServiceKind/String : Complete Main
Default : Нет
Forced : Нет
Аудио #6
Идентификатор : 10
Формат : AC-3
Формат/Информация : Audio Coding 3
Коммерческое название : Dolby Digital
Идентификатор кодека : A_AC3
Продолжительность : 2 ч. 2 м.
Вид битрейта : Постоянный
Битрейт : 384 Кбит/сек
Каналы : 6 каналов
ChannelLayout : L R C LFE Ls Rs
Частота : 48,0 КГц
Частота кадров : 31,250 кадров/сек (1536 SPF)
Метод сжатия : С потерями
Задержка видео : -83 мс.
Размер потока : 337 Мбайт (5%)
Заголовок : MVO HamsterStudio @DD5.1 AC3, 384 Kbps, 48.0 KHz, 6 ch
Язык : Russian
ServiceKind/String : Complete Main
Default : Нет
Forced : Нет
Аудио #7
Идентификатор : 11
Формат : E-AC-3 JOC
Формат/Информация : Enhanced AC-3 with Joint Object Coding
Коммерческое название : Dolby Digital Plus with Dolby Atmos
Идентификатор кодека : A_EAC3
Продолжительность : 2 ч. 2 м.
Вид битрейта : Постоянный
Битрейт : 768 Кбит/сек
Каналы : 6 каналов
ChannelLayout : L R C LFE Ls Rs
Частота : 48,0 КГц
Частота кадров : 31,250 кадров/сек (1536 SPF)
Метод сжатия : С потерями
Размер потока : 672 Мбайт (9%)
Заголовок : Original@DD5.1 E-AC3 , 768 Kbps, 48.0 KHz, 6 ch
Язык : English
ServiceKind/String : Complete Main
Default : Нет
Forced : Нет
ComplexityIndex : 16
NumberOfDynamicObjects : 15
BedChannelCount/String : 1 канал
BedChannelConfiguration : LFE
Текст #1
Идентификатор : 2
Формат : UTF-8
Идентификатор кодека : S_TEXT/UTF8
Идентификатор кодека/Информация : UTF-8 Plain Text
Продолжительность : 2 ч. 1 м.
Битрейт : 60 бит/сек
ElementCount : 1175
Размер потока : 54,1 Кбайт (0%)
Заголовок : -Russian
Язык : Russian
Default : Да
Forced : Нет
Текст #2
Идентификатор : 3
Формат : UTF-8
Идентификатор кодека : S_TEXT/UTF8
Идентификатор кодека/Информация : UTF-8 Plain Text
Продолжительность : 2 ч. 1 м.
Битрейт : 51 бит/сек
ElementCount : 1544
Размер потока : 46,2 Кбайт (0%)
Заголовок : Original - SDH
Язык : English
Default : Нет
Forced : Нет
Текст #3
Идентификатор : 4
Формат : UTF-8
Идентификатор кодека : S_TEXT/UTF8
Идентификатор кодека/Информация : UTF-8 Plain Text
Продолжительность : 2 ч. 0 м.
Битрейт : 46 бит/сек
ElementCount : 1344
Размер потока : 41,0 Кбайт (0%)
Заголовок : Original
Язык : English
Default : Нет
Forced : Нет
Меню
00:00:00.083 : ru:Глава 01 / ru:Глава 01 / ru:Глава 01 / ru:Глава 01 / ru:Глава 01 / ru:Глава 01 / ru:Глава 01 / ru:Глава 01 / ru:Глава 01 / ru:Глава 01 / ru:Глава 01
--

Скриншоты

-- -- -- --Релиз от: Nikolai.Baranov & PIRATIYA . Поблагодарить:
ЯД: 410017546713876
-- -- -- --Время раздачи : 24/7--

_________________

Легко быть оптимистом, когда судьба не валит с ног тяжелыми ударами, а лишь иногда легонько шлепает по заднице.
[Торрент-статистика]
[Профиль]  [ЛС] 
Показать сообщения:    
Ответить на тему

Текущее время: Сегодня 11:07

Часовой пояс: GMT + 4



Вы не можете начинать темы
Вы не можете отвечать на сообщения
Вы не можете редактировать свои сообщения
Вы не можете удалять свои сообщения
Вы не можете голосовать в опросах
Вы не можете прикреплять файлы к сообщениям
Вы не можете скачивать файлы