Люди в черном: Интернэшнл / Men in Black International (Ф. Гэри Грей) [2019, Фантастика, боевик, комедия, приключения,WEB-DLRip 720p] [HDRezka+ENG]+[Subs ENG]

Ответить на тему
 
Автор
Сообщение

Враг Нароода ®

Пол:

Стаж: 3 года 3 месяца

Сообщений: 233

Репутация: 291 [+] [-]

Откуда: Красногорск

Пост 29-Июл-2019 12:39

[Цитировать] 

--Люди в черном: Интернэшнл / Men in Black International -- --Год выпуска: 2019
Выпущено: : Великобритания, США, Columbia Pictures, Sony Pictures Entertainment (SPE), Amblin Entertainment
Жанр: Фантастика, боевик, комедия, приключения
Продолжительность:01:54:57--Озвучка #1: Профессиональный многоголосый - HDRezka Studio - Русский
Озвучка #2: Профессиональный многоголосый -Английский - Оригинал
Субтитры: Корейские (хардсаб, замазанные), English
--Релиз Без Рекламы --MDB 5.6 --Режиссеры:
Ф. Гэри Грей--В ролях: : Тесса Томпсон, Крис Хемсворт, Кумэйл Нанджиани, Ребекка Фергюсон (II), Эмма Томпсон, Лиам Нисон, Рейф Сполл, Кайван Новак, Спенсер Уайлдинг, Марси Хэрриэл, Джесс Радомска, Виктория Фэйт, Аня Совински, Инни Клемонс, Стивен Уайт, Джефф Ким-- уперкиллер Джон Уик после нарушения кодекса тайной гильдии ассасинов получает статус изгоя - экскомьюникадо. За его голову назначена цена в 14 миллионов долларов, и армия самых жестоких профессиональных убийц со всего мира открывает на него кровавую охоту.-- --Качество :WEB-DLRip 720p
Формат: MKV
Видео кодек: H264
Видео: 3641Кбит/сек,1280х720(16.9),в 25.000кадр/сек,AVC (Baselineline@L3.1)(1 Ref Frames)--Аудио Кодек:AAC
Аудио #1: AАC , 192 Kbps, 48.0 KHz, 2 ch- HDRezka -Русский
Аудио #2: AАC , 192 Kbps, 48.0 KHz, 2 ch - - English - Оригинал--

Доп. информация:

Звуковая дорожка сделана путем наложения чистого голоса озвучивателей на центральный канал оригинальной дорожки. Качество идентично звуковой дорожке.
--

MediaInfo

Общее
Уникальный идентификатор : 176187780999784290368777254197961746185 (0x848C884688B0429221BE9F6D6AB0E709)
Полное имя : C:\Users\Russian Patriot\Downloads\Люди в черном Интернэшнл - Men in Black International\Men _in_Black_International_2019_Н264_ААС_N.B_HD_720_Rus_Eng\Men _in_Black_International_2019_Н264_ААС_N.B_HD_720_Rus_Eng.mkv
Формат : Matroska
Версия формата : Version 4
Размер файла : 3,19 Гбайт
Продолжительность : 1 ч. 54 м.
Режим общего битрейта : Переменный
Общий поток : 3970 Кбит/сек
Название фильма : Men in Black International @ Nikolai.Baranov & PIRATIYA
Дата кодирования : UTC 2019-07-29 06:15:13
Программа кодирования : mkvmerge v35.0.0 ('All The Love In The World') 64-bit
Библиотека кодирования : libebml v1.3.9 + libmatroska v1.5.2
Видео
Идентификатор : 1
Формат : AVC
Формат/Информация : Advanced Video Codec
Профиль формата : Baseline@L3.1
Настройки формата : 1 Ref Frames
Параметр CABAC формата : Нет
Параметр RefFrames формата : 1 кадр
Параметр GOP формата : M=1, N=12
Идентификатор кодека : V_MPEG4/ISO/AVC
Продолжительность : 1 ч. 54 м.
Вид битрейта : Переменный
Битрейт : 3641 Кбит/сек
Максимальный битрейт : 5250 Кбит/сек
Ширина : 1280 пикселей
Высота : 720 пикселей
Соотношение сторон : 16:9
Режим частоты кадров : Постоянный
Частота кадров : 25,000 кадров/сек
Частота кадров в оригинале : 24,000 кадра/сек
Цветовое пространство : YUV
Субдискретизация насыщенности : 4:2:0
Битовая глубина : 8 бит
Тип развёртки : Прогрессивная
Бит/(Пиксели*Кадры) : 0.158
Размер потока : 2,92 Гбайт (92%)
Заголовок : Men _in_Black_International_2019_Н264_ААС_N.B_HD_720_Rus_Eng
Язык : Russian
Default : Да
Forced : Нет
Аудио #1
Идентификатор : 3
Формат : AAC LC
Формат/Информация : Advanced Audio Codec Low Complexity
Идентификатор кодека : A_AAC-2
Продолжительность : 1 ч. 54 м.
Битрейт : 163 Кбит/сек
Каналы : 2 канала
ChannelLayout : L R
Частота : 48,0 КГц
Частота кадров : 46,875 кадров/сек (1024 SPF)
Метод сжатия : С потерями
Размер потока : 134 Мбайт (4%)
Заголовок : Original @ AАC , 192 Kbps, 48.0 KHz, 2 ch
Язык : English
Default : Нет
Forced : Нет
Аудио #2
Идентификатор : 4
Формат : AAC LC
Формат/Информация : Advanced Audio Codec Low Complexity
Идентификатор кодека : A_AAC-2
Продолжительность : 1 ч. 54 м.
Битрейт : 163 Кбит/сек
Каналы : 2 канала
ChannelLayout : L R
Частота : 48,0 КГц
Частота кадров : 46,875 кадров/сек (1024 SPF)
Метод сжатия : С потерями
Размер потока : 134 Мбайт (4%)
Заголовок : MVO HDRezka @ AАC , 192 Kbps, 48.0 KHz, 2 ch
Язык : Russian
Default : Да
Forced : Нет
Текст
Идентификатор : 2
Формат : UTF-8
Идентификатор кодека : S_TEXT/UTF8
Идентификатор кодека/Информация : UTF-8 Plain Text
Продолжительность : 1 ч. 43 м.
Битрейт : 69 бит/сек
ElementCount : 1855
Размер потока : 53,0 Кбайт (0%)
Заголовок : -Original
Язык : English
Default : Да
Forced : Нет
Меню
00:00:00.000 : :Глава 01 / :Глава 01 / :Глава 01 / :Глава 01
--

Скриншоты

-- -- -- --Релиз от: Nikolai.Baranov & PIRATIYA . Поблагодарить:
ЯД: 410017546713876
-- -- -- --Время раздачи : 24/7---

_________________

Легко быть оптимистом, когда судьба не валит с ног тяжелыми ударами, а лишь иногда легонько шлепает по заднице.
[Торрент-статистика]
[Профиль]  [ЛС] 

Пост 07-Янв-2021 19:29 (спустя 1 год 5 месяцев)

Топик был перенесен из форума Зарубежное видео компактного размера (~ 700 мб, +/-) в форум Зарубежное кино
Волк
 
Показать сообщения:    
Ответить на тему

Текущее время: Сегодня 02:57

Часовой пояс: GMT + 4



Вы не можете начинать темы
Вы не можете отвечать на сообщения
Вы не можете редактировать свои сообщения
Вы не можете удалять свои сообщения
Вы не можете голосовать в опросах
Вы не можете прикреплять файлы к сообщениям
Вы не можете скачивать файлы