Голубая волна 2 / Blue Crush 2 (Майк Эллиот / Mike Elliott) [2011, США, ЮАР, драма, мелодрама, спорт, BDRip 720p] DUB + Original Eng + Eng Ukr sub

Ответить на тему
 
Автор
Сообщение

nova1980 ®

Пол:

Стаж: 5 лет 8 месяцев

Сообщений: 819

Репутация: 523 [+] [-]

Откуда: Одесса Мама

Пост 28-Янв-2012 02:30

[Цитировать] 

Голубая волна 2 / Blue Crush 2 --Страна: США, ЮАР
Студия: Moonlighting Films, Universal Pictures
Жанр: драма, мелодрама, спорт
Год выпуска: 2011
Продолжительность: 01:52:37--Перевод: Дублированный [лицензия]
Cубтитры: русские [forced], украинские, английские
Оригинальная аудиодорожка: английская--Режиссер: Майк Эллиот / Mike Elliott
В ролях: Саша Джексон, Элизабет Мэтис, Бен Милликен, Шарни Винсон, Крис Фишер, Гидеон Эмери, Рози Ходж, Роджер Халстон, Эндрю Ланж--Описание: Терзаемая воспоминаниями о своей умершей матери, Дана уезжает из Малибу и направляется в Южную Африку, чтобы осуществить мечту ее матери о серфинге в заливе Джефферус.-- | imdb | kinopoisk | Сэмпл--Тип релиза: BDRip 720p [DON]
Контейнер: MKV
Видео: 7000 kb/s, 1280x720, 23.976 fps, V_MPEG4/ISO/AVC
Аудио: AC3, 384 kb/s, 5.1, 48 kHz, 16 bits [rus]
Аудио 2: DTS, 1510 kb/s, 5.1, 48 kHz, 24 bits [eng]
Формат субтитров: softsub [SRT]

MediaInfo

Complete name : FGolubaja.volna.2.2011.x264.BDRip.720p.IRONCLUB.mkv
Format : Matroska
Format version : Version 2
File size : 7.00 GiB
Duration : 1h 52mn
Overall bit rate : 8 894 Kbps
Movie name : Blue Crush 2 (2011) - Released by IronClub.TV
Encoded date : UTC 2012-01-27 15:07:20
Writing application : mkvmerge v4.9.1 ('Ich will') сборка от Jul 11 2011 23:53:15
Writing library : libebml v1.2.1 + libmatroska v1.1.1
Video
ID : 1
Format : AVC
Format/Info : Advanced Video Codec
Format profile : High@L4.1
Format settings, CABAC : Yes
Format settings, ReFrames : 8 frames
Codec ID : V_MPEG4/ISO/AVC
Duration : 1h 52mn
Bit rate : 7 000 Kbps
Width : 1 280 pixels
Height : 720 pixels
Display aspect ratio : 16:9
Frame rate : 23.976 fps
Color space : YUV
Chroma subsampling : 4:2:0
Bit depth : 8 bits
Scan type : Progressive
Bits/(Pixel*Frame) : 0.317
Stream size : 5.37 GiB (77%)
Title : Blue Crush 2 (2011) - Released by IronClub.TV
Writing library : x264 core 115 r1995 c1e60b9
Encoding settings : cabac=1 / ref=8 / deblock=1:-3:-3 / analyse=0x3:0x133 / me=umh / subme=10 / psy=1 / psy_rd=1.00:0.00 / mixed_ref=1 / me_range=32 / chroma_me=1 / trellis=2 / 8x8dct=1 / cqm=0 / deadzone=21,11 / fast_pskip=0 / chroma_qp_offset=-2 / threads=18 / sliced_threads=0 / nr=0 / decimate=0 / interlaced=0 / bluray_compat=0 / constrained_intra=0 / bframes=7 / b_pyramid=2 / b_adapt=2 / b_bias=0 / direct=3 / weightb=1 / open_gop=0 / weightp=2 / keyint=250 / keyint_min=23 / scenecut=40 / intra_refresh=0 / rc_lookahead=60 / rc=2pass / mbtree=0 / bitrate=7000 / ratetol=1.0 / qcomp=0.65 / qpmin=0 / qpmax=69 / qpstep=4 / cplxblur=20.0 / qblur=0.5 / vbv_maxrate=50000 / vbv_bufsize=62500 / nal_hrd=none / ip_ratio=1.40 / pb_ratio=1.30 / aq=1:0.65
Language : English
Default : Yes
Forced : Yes
Audio #1
ID : 2
Format : AC-3
Format/Info : Audio Coding 3
Mode extension : CM (complete main)
Codec ID : A_AC3
Duration : 1h 52mn
Bit rate mode : Constant
Bit rate : 384 Kbps
Channel(s) : 6 channels
Channel positions : Front: L C R, Side: L R, LFE
Sampling rate : 48.0 KHz
Bit depth : 16 bits
Compression mode : Lossy
Stream size : 309 MiB (4%)
Title : DD 5.1 @ 384 kbps - Dub, R5
Language : Russian
Default : Yes
Forced : Yes
Audio #2
ID : 3
Format : DTS
Format/Info : Digital Theater Systems
Codec ID : A_DTS
Duration : 1h 52mn
Bit rate mode : Constant
Bit rate : 1 510 Kbps
Channel(s) : 6 channels
Channel positions : Front: L C R, Side: L R, LFE
Sampling rate : 48.0 KHz
Bit depth : 24 bits
Compression mode : Lossy
Delay relative to video : 11ms
Stream size : 1.19 GiB (17%)
Title : DTS 5.1 @ 1510 kbps
Language : English
Default : No
Forced : No
Text #1
ID : 4
Format : UTF-8
Codec ID : S_TEXT/UTF8
Codec ID/Info : UTF-8 Plain Text
Title : Forced
Language : Russian
Default : No
Forced : No
Text #2
ID : 5
Format : UTF-8
Codec ID : S_TEXT/UTF8
Codec ID/Info : UTF-8 Plain Text
Language : Ukrainian
Default : No
Forced : No
Text #3
ID : 6
Format : UTF-8
Codec ID : S_TEXT/UTF8
Codec ID/Info : UTF-8 Plain Text
Language : English
Default : No
Forced : No
Menu
00:00:00.000 : en:00:00:00.000
00:06:27.220 : en:00:06:27.220
00:10:18.451 : en:00:10:18.451
00:17:55.866 : en:00:17:55.866
00:23:13.142 : en:00:23:13.142
00:27:21.098 : en:00:27:21.098
00:31:28.220 : en:00:31:28.220
00:38:27.931 : en:00:38:27.931
00:42:15.032 : en:00:42:15.032
00:46:22.738 : en:00:46:22.738
00:51:00.224 : en:00:51:00.224
00:56:34.391 : en:00:56:34.391
01:02:37.170 : en:01:02:37.170
01:10:18.339 : en:01:10:18.339
01:15:17.513 : en:01:15:17.513
01:20:16.020 : en:01:20:16.020
01:24:31.984 : en:01:24:31.984
01:29:41.793 : en:01:29:41.793
01:37:56.162 : en:01:37:56.162
01:47:12.551 : en:01:47:12.551

Скриншоты




_________________
Мои Раздачи


Последний раз редактировалось: nova1980 (2012-01-28 02:43), всего редактировалось 1 раз
[Торрент-статистика]
[Профиль]  [ЛС] 
Показать сообщения:    
Ответить на тему

Текущее время: Сегодня 12:30

Часовой пояс: GMT + 4



Вы не можете начинать темы
Вы не можете отвечать на сообщения
Вы не можете редактировать свои сообщения
Вы не можете удалять свои сообщения
Вы не можете голосовать в опросах
Вы не можете прикреплять файлы к сообщениям
Вы не можете скачивать файлы