Агент Джонни Инглиш: Перезагрузка / Johnny English Reborn (Оливер Паркер) [2011, боевик, комедия, приключения, BDRip 1080p] R5

Ответить на тему
 
Автор
Сообщение

diim ®

Пол:

Стаж: 2 года 7 месяцев

Сообщений: 1034

Репутация: 112 [+] [-]

Пост 20-Янв-2012 22:40

[Цитировать] 

Агент Джонни Инглиш: Перезагрузка / Johnny English Reborn Год выпуска: 2011
Страна: США, Франция, Великобритания
Слоган: «Он не ищет лёгких путей»
Жанр: боевик, комедия, приключения
Продолжительность: 01:41:21
Перевод: Профессиональный (полное дублирование)
Режиссер: Оливер Паркер
Сценарий: Уильям Дэвис, Хэмиш Макколл, Нил Пёрвис, Роберт Уэйд
Продюсер: Тим Беван, Крис Кларк, Эрик Феллнер, Роуэн Эткинсон, Роналдо Васконселлос
Оператор: Дэнни Коэн
Композитор: Илан Эшкери
В ролях: Роуэн Эткинсон, Джиллиан Андерсон, Роджер Барклай, Эрик Карте, Того Игава, Элинор Уайлд, Мэнди Сидху, Маргарет Клуни, Розамунд Пайк, Доминик Уэст, Тим МакИннерни, Мариэлла Фрострап
Дублёры: Сергей Бурунов, Елена Соловьева, Татьяна Шитова, Владимир Зайцев, Диомид Виноградов, Александр Груздев-Описание: Действие фильма разворачивается через 8 лет после событий предшествующего фильма и с тех пор карьера сэра Джонни Инглиша ухудшается. За 5 лет до начала фильма его направили с заданием в Мозамбик, но миссия пошла ужасно плохо. С тех пор он живёт в пещере в горах Тибета, прячась ото всех из-за стыда, сожалений и обвинений в провале миссии.
Фильм начинается, когда герой находится на крайне низком моральном уровне, пока ему не дают ещё один шанс. Британская разведка МИ-7 снова нуждается в нём и ей надо вернуть агента, чтобы тот сорвал заговор группы киллеров, планирующих убить китайского премьер-министра.-Качество: BDRip 1080p R5
Формат: MKV
Видео: MPEG4 Video (H264) 1920x800 23.98fps 9297 Kbps
Аудио: DTS 48000Hz 6ch 755 Kbps
Аудио: DTS 48000Hz 6ch 1510 Kbps-

MediaInfo

Код:
General
Unique ID                        : 240855427761835798000150085337996215752 (0xB533116C5874D7C39CC987DE5B0245C8)
Complete name                    : E:\Johnny.english.reborn.D.BDRip.1080p.Uniongang.tv.mkv
Format                           : Matroska
File size                        : 8.19 GiB
Duration                         : 1h 41mn
Overall bit rate                 : 11.6 Mbps
Encoded date                     : UTC 2012-01-19 23:13:30
Writing application              : mkvmerge v4.0.0 ('The Stars were mine') сборка от Jun 18 2010 16:54:49
Writing library                  : libebml v1.0.0 + libmatroska v1.0.0
Video
ID                               : 1
Format                           : AVC
Format/Info                      : Advanced Video Codec
Format profile                   : High@L4.1
Format settings, CABAC           : Yes
Format settings, ReFrames        : 5 frames
Format settings, GOP             : M=4, N=49
Codec ID                         : V_MPEG4/ISO/AVC
Duration                         : 1h 41mn
Bit rate                         : 9 297 Kbps
Width                            : 1 920 pixels
Height                           : 800 pixels
Display aspect ratio             : 2.40:1
Frame rate                       : 23.976 fps
Color space                      : YUV
Chroma subsampling               : 4:2:0
Bit depth                        : 8 bits
Scan type                        : Progressive
Bits/(Pixel*Frame)               : 0.252
Stream size                      : 6.42 GiB (78%)
Title                            : BDRip.1080p.Uniongang.tv
Writing library                  : x264 core 116 r2074 2641b9e
Encoding settings                : cabac=1 / ref=5 / deblock=1:0:0 / analyse=0x3:0x2 / me=umh / subme=7 / psy=1 / psy_rd=1.00:0.00 / mixed_ref=1 / me_range=16 / chroma_me=1 / trellis=1 / 8x8dct=1 / cqm=0 / deadzone=21,11 / fast_pskip=1 / chroma_qp_offset=-2 / threads=12 / sliced_threads=0 / nr=0 / decimate=1 / interlaced=0 / bluray_compat=0 / constrained_intra=0 / bframes=3 / b_pyramid=2 / b_adapt=1 / b_bias=0 / direct=1 / weightb=0 / open_gop=0 / weightp=2 / keyint=250 / keyint_min=23 / scenecut=40 / intra_refresh=0 / rc=2pass / mbtree=0 / bitrate=9297 / ratetol=1.0 / qcomp=0.60 / qpmin=0 / qpmax=51 / qpstep=4 / cplxblur=20.0 / qblur=0.5 / ip_ratio=1.40 / pb_ratio=1.30 / aq=1:1.00
Language                         : English
Audio #1
ID                               : 2
Format                           : DTS
Format/Info                      : Digital Theater Systems
Muxing mode                      : Header stripping
Codec ID                         : A_DTS
Duration                         : 1h 41mn
Bit rate mode                    : Constant
Bit rate                         : 755 Kbps
Channel(s)                       : 6 channels
Channel positions                : Front: L C R, Side: L R, LFE
Sampling rate                    : 48.0 KHz
Bit depth                        : 24 bits
Compression mode                 : Lossy
Stream size                      : 547 MiB (7%)
Title                            : Russian @ DTS 5.1 @ 768 kbps
Language                         : Russian
Audio #2
ID                               : 3
Format                           : DTS
Format/Info                      : Digital Theater Systems
Muxing mode                      : Header stripping
Codec ID                         : A_DTS
Duration                         : 1h 41mn
Bit rate mode                    : Constant
Bit rate                         : 1 510 Kbps
Channel(s)                       : 6 channels
Channel positions                : Front: L C R, Side: L R, LFE
Sampling rate                    : 48.0 KHz
Bit depth                        : 24 bits
Compression mode                 : Lossy
Delay relative to video          : 11ms
Stream size                      : 1.07 GiB (13%)
Title                            : English @ DTS 5.1 @ 1509 kbps
Language                         : English

Скриншоты

[Торрент-статистика]
[Профиль]  [ЛС] 
Показать сообщения:    
Ответить на тему

Текущее время: Сегодня 16:02

Часовой пояс: GMT + 4



Вы не можете начинать темы
Вы не можете отвечать на сообщения
Вы не можете редактировать свои сообщения
Вы не можете удалять свои сообщения
Вы не можете голосовать в опросах
Вы не можете прикреплять файлы к сообщениям
Вы не можете скачивать файлы