Сильнейший удар: Бой до смерти / Shootfighter: Fight to the Death (Патрик Алан / Patrick Alan) [1993, США, боевик, BDRip 720p] DVO (Рен ТВ) + 4x AVO (Дольский, Горчаков, Гаврилов, Визгунов) + Original Eng

Ответить на тему
 
Автор
Сообщение

06111986 ®

Пол:

Стаж: 3 года

Сообщений: 4

Репутация: 0 [+] [-]

Пост 30-Мар-2018 12:31

[Цитировать] 

Сильнейший удар: Бой до смерти / Shootfighter: Fight to the Death
Год выпуска: 1992
Страна: США
Жанр: Боевик
Продолжительность: 01:35:45
Перевод: Профессиональный Двухголосый ,'РенТВ''
Перевод 2: Авторский одноголосый Сергей Визгунов
Перевод 3: Авторский одноголосый Андрей Гаврилов
Перевод 4: Авторский Василий Горчаков
Перевод 5: Авторский Андрей Дольский
Субтитры: нет
Режиссер: Патрик Алан
В ролях: Боло Йен, Мэриам д’Або, Уильям Забка, Майкл Бернардо, Сигал Дайэмант, Мартин Коув, Эдвард Альберт, Джеймс Пак, Лэнг Юнг, Сагив Дайамант
Описание: Два друга, ученики мастера Шинго, приехали на подпольный турнир бойцов, поединки которого ведутся до смертельного исхода.
Драматически складывается не только ход турнира, но и взаимоотношения друзей. Но на ринг выходит мастер Шинго.
Доп. информация: Релиз Тип релиза: BDRip 720p
Контейнер: MKV
Видео: AVC/H.264, 1280x720, 7000 kbps, 23,976 fps
Аудио #01: Russian, AC3, 2 ch, 192 kbps - Двухголосый ''РенТВ''
Аудио #02: Russian, AC3, 2 ch, 192 kbps - Авторский ''Сергей Визгунов''
Аудио #03: Russian, AC3, 2 ch, 192 kbps - Авторский ''Андрей Гаврилов''
Аудио #04: Russian, AC3, 2 ch, 192 kbps - Авторский ''Василий Горчаков''
Аудио #05: Russian, AC3, 2 ch, 192 kbps - Авторский ''Андрей Дольский''
Аудио #06: English, DTS, 6 ch, 768 kbps
Субтитры: Отсутствуют

Mediainfo

Общее
Уникальный идентификатор : 287409924882393222383686343251801008324 (0xD83923583215B23ABB2B53F80BF1E8C4)
Полное имя : D:\Видео\Сильнейший удар\Shootfighter.Fight.To.The.Death.1992.720p.BLUEBIRD.mkv
Формат : Matroska
Версия формата : Version 2
Размер файла : 5,84 Гбайт
Продолжительность : 1 ч. 35 м.
Общий поток : 8730 Кбит/сек
Название фильма : Сильнейший удар: Бой до смерти (Shootfighter: Fight to the Death) - BlueBird
Дата кодирования : UTC 2018-03-27 12:40:13
Программа кодирования : mkvmerge v21.0.0 ('Tardigrades Will Inherit The Earth') 64-bit
Библиотека кодирования : libebml v1.3.5 + libmatroska v1.4.8
Attachment : Yes
Видео
Идентификатор : 1
Формат : AVC
Формат/Информация : Advanced Video Codec
Профиль формата : High@L4.1
Параметр CABAC формата : Да
Параметр ReFrames формата : 9 кадров
Идентификатор кодека : V_MPEG4/ISO/AVC
Продолжительность : 1 ч. 35 м.
Битрейт : 7000 Кбит/сек
Ширина : 1280 пикселей
Высота : 720 пикселей
Соотношение сторон : 16:9
Частота кадров : 23,976 кадра/сек
Цветовое пространство : YUV
Субдискретизация насыщенности : 4:2:0
Битовая глубина : 8 бит
Тип развёртки : Прогрессивная
Бит/(Пиксели*Кадры) : 0.317
Размер потока : 4,58 Гбайт (78%)
Заголовок : Сильнейший удар: Бой до смерти (Shootfighter: Fight to the Death)
Библиотека кодирования : x264 core 155 r2901 7d0ff22
Настройки программы : cabac=1 / ref=9 / deblock=1:-1:-1 / analyse=0x3:0x133 / me=umh / subme=11 / psy=1 / psy_rd=1.00:0.15 / mixed_ref=1 / me_range=64 / chroma_me=1 / trellis=2 / 8x8dct=1 / cqm=0 / deadzone=21,11 / fast_pskip=0 / chroma_qp_offset=-3 / threads=6 / lookahead_threads=1 / sliced_threads=0 / nr=0 / decimate=0 / interlaced=0 / bluray_compat=0 / constrained_intra=0 / bframes=16 / b_pyramid=2 / b_adapt=2 / b_bias=0 / direct=3 / weightb=1 / open_gop=0 / weightp=2 / keyint=240 / keyint_min=23 / scenecut=40 / intra_refresh=0 / rc_lookahead=60 / rc=2pass / mbtree=0 / bitrate=7000 / ratetol=1.0 / qcomp=0.60 / qpmin=0 / qpmax=69 / qpstep=4 / cplxblur=20.0 / qblur=0.5 / vbv_maxrate=50000 / vbv_bufsize=62500 / nal_hrd=none / filler=0 / ip_ratio=1.40 / pb_ratio=1.30 / aq=1:1.00
Язык : English
Default : Да
Forced : Нет
Аудио #1
Идентификатор : 2
Формат : AC-3
Формат/Информация : Audio Coding 3
Расширение режима : CM (complete main)
Параметр Endianness формата : Big
Идентификатор кодека : A_AC3
Продолжительность : 1 ч. 35 м.
Вид битрейта : Постоянный
Битрейт : 192 Кбит/сек
Каналы : 2 канала
Расположение каналов : Front: L R
Частота : 48,0 КГц
Битовая глубина : 16 бит
Метод сжатия : С потерями
Размер потока : 131 Мбайт (2%)
Заголовок : Двухголосый ''РенТВ'' (AC-3, Постоянный, 192 Кбит/сек, 2 канала, 48,0 КГц, 16 бит)
Язык : Russian
Default : Да
Forced : Нет
Аудио #2
Идентификатор : 3
Формат : AC-3
Формат/Информация : Audio Coding 3
Расширение режима : CM (complete main)
Параметр Endianness формата : Big
Идентификатор кодека : A_AC3
Продолжительность : 1 ч. 35 м.
Вид битрейта : Постоянный
Битрейт : 192 Кбит/сек
Каналы : 2 канала
Расположение каналов : Front: L R
Частота : 48,0 КГц
Битовая глубина : 16 бит
Метод сжатия : С потерями
Размер потока : 131 Мбайт (2%)
Заголовок : Авторский ''Сергей Визгунов'' (AC-3, Постоянный, 192 Кбит/сек, 2 канала, 48,0 КГц, 16 бит)
Язык : Russian
Default : Нет
Forced : Нет
Аудио #3
Идентификатор : 4
Формат : AC-3
Формат/Информация : Audio Coding 3
Расширение режима : CM (complete main)
Параметр Endianness формата : Big
Идентификатор кодека : A_AC3
Продолжительность : 1 ч. 35 м.
Вид битрейта : Постоянный
Битрейт : 192 Кбит/сек
Каналы : 2 канала
Расположение каналов : Front: L R
Частота : 48,0 КГц
Битовая глубина : 16 бит
Метод сжатия : С потерями
Размер потока : 131 Мбайт (2%)
Заголовок : Авторский ''Андрей Гаврилов'' (AC-3, Постоянный, 192 Кбит/сек, 2 канала, 48,0 КГц, 16 бит)
Язык : Russian
Default : Нет
Forced : Нет
Аудио #4
Идентификатор : 5
Формат : AC-3
Формат/Информация : Audio Coding 3
Расширение режима : CM (complete main)
Параметр Endianness формата : Big
Идентификатор кодека : A_AC3
Продолжительность : 1 ч. 35 м.
Вид битрейта : Постоянный
Битрейт : 192 Кбит/сек
Каналы : 2 канала
Расположение каналов : Front: L R
Частота : 48,0 КГц
Битовая глубина : 16 бит
Метод сжатия : С потерями
Размер потока : 131 Мбайт (2%)
Заголовок : Авторский ''Василий Горчаков'' (AC-3, Постоянный, 192 Кбит/сек, 2 канала, 48,0 КГц, 16 бит)
Язык : Russian
Default : Нет
Forced : Нет
Аудио #5
Идентификатор : 6
Формат : AC-3
Формат/Информация : Audio Coding 3
Расширение режима : CM (complete main)
Параметр Endianness формата : Big
Идентификатор кодека : A_AC3
Продолжительность : 1 ч. 35 м.
Вид битрейта : Постоянный
Битрейт : 192 Кбит/сек
Каналы : 2 канала
Расположение каналов : Front: L R
Частота : 48,0 КГц
Битовая глубина : 16 бит
Метод сжатия : С потерями
Размер потока : 131 Мбайт (2%)
Заголовок : Авторский ''Андрей Дольский'' (AC-3, Постоянный, 192 Кбит/сек, 2 канала, 48,0 КГц, 16 бит)
Язык : Russian
Default : Нет
Forced : Нет
Аудио #6
Идентификатор : 7
Формат : DTS
Формат/Информация : Digital Theater Systems
Идентификатор кодека : A_DTS
Продолжительность : 1 ч. 35 м.
Вид битрейта : Постоянный
Битрейт : 755 Кбит/сек
Каналы : 6 каналов
Расположение каналов : Front: L C R, Side: L R, LFE
Частота : 48,0 КГц
Битовая глубина : 24 бит
Метод сжатия : С потерями
Размер потока : 517 Мбайт (9%)
Заголовок : Оригинал (DTS, Постоянный, 768 Кбит/сек, 6 каналов, 48,0 КГц, 24 бит)
Язык : English
Default : Нет
Forced : Нет

Скриншоты

[ /spoiler]
[Торрент-статистика]
[Профиль]  [ЛС] 
Показать сообщения:    
Ответить на тему

Текущее время: Сегодня 11:08

Часовой пояс: GMT + 4



Вы не можете начинать темы
Вы не можете отвечать на сообщения
Вы не можете редактировать свои сообщения
Вы не можете удалять свои сообщения
Вы не можете голосовать в опросах
Вы не можете прикреплять файлы к сообщениям
Вы не можете скачивать файлы