Код доступа «Кейптаун» / Safe House (Дэниэл Эспиноза) [2012, боевик, триллер, криминал, детектив, BDRip 1080p] R5

Ответить на тему
 
Автор
Сообщение

diim ®

Пол:

Стаж: 6 лет 2 месяца

Сообщений: 1038

Репутация: 112 [+] [-]

Пост 07-Июн-2012 17:33

[Цитировать] 

Код доступа «Кейптаун» / Safe HouseГод выпуска: 2012
Страна: США, ЮАР
Слоган: «No One Is Safe»
Жанр: боевик, триллер, криминал, детектив
Продолжительность: 01:54:56
Перевод: Профессиональный (полное дублирование)
Субтитры: English [softsub (SRT)] + (PGS)
Режиссер: Дэниэл Эспиноза
Сценарий: Дэвид Гуггенхейм
Продюсер: Скотт Стубер, Скотт Аверсано, Марк Д. Эванс, Алекса Фэйген, Женев Хофмайер
Оператор: Оливер Вуд
Композитор: Рамин Джавади
В ролях: Дензел Вашингтон, Райан Рейнольдс, Вера Фармига, Брендан Глисон, Сэм Шепард, Рубен Бладес, Нора Арнезедер, Роберт Патрик, Лиам Каннингэм, Юэль Киннаман, Фарес Фарес, Дженна Довер
Дублёры: Денис Беспалый, Пётр Иващенко, Елена Соловьева, Алексей Колган, Валерий Сторожик, Анастасия Нестеренко, Иван Жарков-Бюджет: $85 000 000
Сборы в США: $126 181 630
Сборы в России: $2 877 561
Сборы в мире: $203 079 209
Мировая премьера: 7 февраля 2012
Релиз на DVD: 14 июня 2012, «Двадцатый Век Фокс СНГ»
Релиз на Blu-ray: 14 июня 2012, «Двадцатый Век Фокс СНГ»-Описание: Выпускник Гарварда Мэтт мечтает со своей невестой переехать в Париж. Но она не знает, что уже год он работает на ЦРУ.
Легендарный агент ЦРУ Фрост владеет секретной информацией. Но он вышел из-под контроля, и теперь его главное правило: «не доверяй никому - тебя предаст каждый».
Их пути пересекутся в одном из красивейших городов мира - Кейптауне, где каждый должен будет сделать свой выбор.- 7.0/10 (36,722 users) 6.892 (4 788)
MPAA: - Лицам до 17 лет обязательно присутствие взрослого-

NFO

Format : Matroska
Format version : Version 2
File size : 17.4 GiB
Duration : 1h 54mn
Overall bit rate : 21.7 Mbps
Encoded date : UTC 2012-06-06 16:36:59
Writing application : mkvmerge v2.9.7 ('Tenderness') built on Jul 13 2009 22:24:14
Writing library : libebml v0.7.7 + libmatroska v0.8.1
Video
ID : 1
Format : AVC
Format/Info : Advanced Video Codec
Format profile : High@L4.1
Format settings, CABAC : Yes
Format settings, ReFrames : 5 frames
Codec ID : V_MPEG4/ISO/AVC
Duration : 1h 54mn
Bit rate : 19.8 Mbps
Width : 1 920 pixels
Height : 800 pixels
Display aspect ratio : 2.40:1
Frame rate : 23.976 fps
Color space : YUV
Chroma subsampling : 4:2:0
Bit depth : 8 bits
Scan type : Progressive
Bits/(Pixel*Frame) : 0.538
Stream size : 15.5 GiB (89%)
Title : Safe House 2012 BDRip 1080p
Writing library : x264 core 125 r2200 999b753
Encoding settings : cabac=1 / ref=5 / deblock=1:-3:-3 / analyse=0x3:0x113 / me=umh / subme=11 / psy=1 / psy_rd=1.15:0.00 / mixed_ref=1 / me_range=48 / chroma_me=1 / trellis=2 / 8x8dct=1 / cqm=0 / deadzone=21,11 / fast_pskip=0 / chroma_qp_offset=-2 / threads=18 / lookahead_threads=3 / sliced_threads=0 / nr=0 / decimate=0 / interlaced=0 / bluray_compat=0 / constrained_intra=0 / bframes=8 / b_pyramid=2 / b_adapt=2 / b_bias=0 / direct=3 / weightb=1 / open_gop=0 / weightp=2 / keyint=240 / keyint_min=24 / scenecut=40 / intra_refresh=0 / rc=2pass / mbtree=0 / bitrate=19800 / ratetol=1.0 / qcomp=0.65 / qpmin=0 / qpmax=69 / qpstep=4 / cplxblur=20.0 / qblur=0.5 / ip_ratio=1.40 / pb_ratio=1.30 / aq=1:0.60
Default : Yes
Forced : No
Audio #1
ID : 2
Format : AC-3
Format/Info : Audio Coding 3
Mode extension : CM (complete main)
Codec ID : A_AC3
Duration : 1h 54mn
Bit rate mode : Constant
Bit rate : 384 Kbps
Channel(s) : 6 channels
Channel positions : Front: L C R, Side: L R, LFE
Sampling rate : 48.0 KHz
Bit depth : 16 bits
Compression mode : Lossy
Delay relative to video : 20ms
Stream size : 316 MiB (2%)
Title : Dolby Digital AC3 / 384 kbps / 5.1 / 48 kHz / Russian
Language : Russian
Default : Yes
Forced : No
Audio #2
ID : 3
Format : DTS
Format/Info : Digital Theater Systems
Codec ID : A_DTS
Duration : 1h 54mn
Bit rate mode : Constant
Bit rate : 1 510 Kbps
Channel(s) : 6 channels
Channel positions : Front: L C R, Side: L R, LFE
Sampling rate : 48.0 KHz
Bit depth : 24 bits
Compression mode : Lossy
Delay relative to video : 11ms
Stream size : 1.21 GiB (7%)
Title : ENG DTS 1510 Kbps 6ch Original
Language : English
Default : No
Forced : No
Text #1
ID : 4
Format : UTF-8
Codec ID : S_TEXT/UTF8
Codec ID/Info : UTF-8 Plain Text
Title : ENG Subtitles Full SRT
Language : English
Default : Yes
Forced : No
Text #2
ID : 5
Format : PGS
Codec ID : S_HDMV/PGS
Codec ID/Info : The same subtitle format used on BDs/HD-DVDs
Title : ENG Subtitles Full PGS
Language : English
Default : No
Forced : No
Menu
00:00:00.000 : en:00:00:00.000
00:04:52.000 : en:00:04:52.000
00:13:44.615 : en:00:13:44.615
00:18:44.457 : en:00:18:44.457
00:23:58.228 : en:00:23:58.228
00:29:26.932 : en:00:29:26.932
00:37:19.988 : en:00:37:19.988
00:41:23.981 : en:00:41:23.981
00:48:29.031 : en:00:48:29.031
00:56:48.780 : en:00:56:48.780
01:00:53.984 : en:01:00:53.984
01:07:02.310 : en:01:07:02.310
01:11:17.982 : en:01:11:17.982
01:16:25.581 : en:01:16:25.581
01:21:23.128 : en:01:21:23.128
01:26:14.002 : en:01:26:14.002
01:29:25.110 : en:01:29:25.110
01:35:34.479 : en:01:35:34.479
01:44:25.217 : en:01:44:25.217
01:49:44.203 : en:01:49:44.203
-Качество: BDRip 1080p
Формат: MKV
Видео: 1920х800p / 23,976 fps / 2.40:1 / High Profile 4.1 / H.264 / ~ 19.8 Mbps
Аудио №1: Dolby Digital AC3 / 384 kbps / 5.1 / 48 kHz / Russian
Аудио №2: DTS / 1510 kbps / 5.1 / 48 kHz / English / (original)-Сохранены оригинальные чаптеры как на Blu-Ray-

Знаете ли Вы, что...

  • На роль Мэтта Уэстона рассматривались Шайа Лабаф, Тейлор Китч, Крис Пайн, Сэм Уортингтон, Гаррет Хедлунд , Зак Эфрон, Ченнинг Татум, Крис Хемсворт и Джейк Джилленхол.

Скриншоты

[Торрент-статистика]
[Профиль]  [ЛС] 
Показать сообщения:    
Ответить на тему

Текущее время: Сегодня 10:21

Часовой пояс: GMT + 4



Вы не можете начинать темы
Вы не можете отвечать на сообщения
Вы не можете редактировать свои сообщения
Вы не можете удалять свои сообщения
Вы не можете голосовать в опросах
Вы не можете прикреплять файлы к сообщениям
Вы не можете скачивать файлы