Живая сталь / Real Steel (Шон Леви) [2011, фантастика, боевик, семейный, BD Remux, 1080p]

Ответить на тему
 
Автор
Сообщение

diim ®

Пол:

Стаж: 6 лет 2 месяца

Сообщений: 1038

Репутация: 112 [+] [-]

Пост 14-Янв-2012 03:31

[Цитировать] 

Живая сталь / Real Steel-«Чемпионами не рождаются, их собирают»- Год выпуска: 2011
Страна: США, Индия
Жанр: фантастика, боевик, семейный
Продолжительность: 02:06:50
Перевод: Субтитры, Профессиональный (полное дублирование)-Режиссер: Шон Леви
Сценарий: Джон Гэйтинс, Дэн Гилрой, Джереми Левин, Ричард Мэтисон
Продюсер: Роберт Земекис, Шон Леви, Сьюзен Монтфорд, Дон Мерфи, Рон Амес
Оператор: Мауро Фиоре
Композитор: Дэнни Элфман
В ролях: Хью Джекман (Charlie Kenton,), Дакота Гойо (Max Kenton), Эванджелин Лилли (Bailey Tallet), Энтони Маки (Finn), Кевин Дюран (Ricky), Хоуп Дэвис (Aunt Debra), Джеймс Ребхорн (Marvin), Марко Руджери (Cliff), Карл Йун (Tak Mashido), Ольга Фонда (Farra Lemkova), Джон Гэйтинс (Kingpin), Софи Леви (Big Sister)
Дублёры: Александр Рахленко (Charlie Kenton), Петр Вечерков (Max Kenton), Евгения Игумнова (Bailey Tallet)-Описание: События фильма происходят в будущем, где бокс запрещен за негуманностью и заменен боями 2000-фунтовых роботов, управляемых людьми. Бывший боксер, а теперь промоутер, переметнувшийся в Робобокс, решает, что наконец нашел своего чемпиона, когда ему попадается выбракованный, но очень способный робот. Одновременно на жизненном пути героя возникает 11-летний пацан, оказывающийся его сыном. И по мере того, как машина пробивает свой путь к вершине, обретшие друг друга отец и сын учатся дружить.-
-Бюджет: $110 000 000
Сборы в США: $84 857 545
Сборы в России: $19 310 230
Сборы в мире: $292 257 545
Мировая премьера: 6 сентября 2011
Релиз на DVD: 7 февраля 2012, «Уолт Дисней Компани СНГ»
Релиз на Blu-ray: 7 февраля 2012, «Уолт Дисней Компани СНГ»-

Знаете ли Вы, что...

  • На рекламных щитах во время главного боя показана реклама Xbox 720.
  • При первой встрече, герой Кевина Дюрана говорит герою Джекмена, что в прошлый раз побил его на ринге. Этот эпизод, отсылка к фильму 'Люди Икс: Начало. Росомаха', в котором герои Дюрана и Джекмена тоже встречались на ринге.
  • Для фильма были созданы настоящие человекоподобные роботы, чтобы с технологией захвата движения корректно отобразить пластику движущихся механизмов. Всего было сделано 19 роботов.
  • Прототипом робота Зевса послужил Джек из серии игр Tekken. Схож не только облик, но и удары, которые использует Зевс в финальной битве.
  • На пульте робота Нойзи Бой показан логотип компании Hewlett-Packard.
  • На табличках, выносимых девушками между раундами, показан логотип компании Hewlett-Packard.
-Качество: BD Remux
Формат: BDAV
Видео: AVC; 1920x1080 (16:9); 25639 kbps; 23,976 fps; 0,516 bit/pixel
Аудио №1: Russian; AC3; 384 kbps; CBR; 6 channels; 16 bit
Аудио №2: English; DTS-HD; VBR; 24 bit

Субтитры (PGS): English, Russian (Voronine)

MediaInfo

Общее
Идентификатор : 1 (0x1)
Полное имя : E:\Видео\REAL_STEEL_BD_RMX_BLUEBIRD\BDMV\STREAM\00000.m2ts
Формат : BDAV
Формат/Информация : Blu-ray Video
Размер файла : 26,9 Гбайт
Продолжительность : 2 ч. 6 м.
Режим общего битрейта : Переменный
Общий поток : 30,3 Мбит/сек
Максимальный общий битрейт : 35,5 Мбит/сек
Видео
Идентификатор : 4113 (0x1011)
Идентификатор меню : 1 (0x1)
Формат : AVC
Формат/Информация : Advanced Video Codec
Профиль формата : High@L4.1
Параметр CABAC формата : Да
Параметр ReFrames формата : 4 кадра
Идентификатор кодека : 27
Продолжительность : 2 ч. 6 м.
Вид битрейта : Переменный
Битрейт : 25,6 Мбит/сек
Максимальный битрейт : 37,0 Мбит/сек
Ширина : 1920 пикселей
Высота : 1080 пикселей
Соотношение сторон : 16:9
Частота кадров : 23,976 кадра/сек
Цветовое пространство : YUV
Субдискретизация насыщенности : 4:2:0
Битовая глубина : 8 бит
Тип развёртки : Прогрессивная
Бит/(Пиксели*Кадры) : 0.516
Размер потока : 22,7 Гбайт (85%)
Аудио #1
Идентификатор : 4352 (0x1100)
Идентификатор меню : 1 (0x1)
Формат : AC-3
Формат/Информация : Audio Coding 3
Расширение режима : CM (complete main)
Идентификатор кодека : 129
Продолжительность : 2 ч. 6 м.
Вид битрейта : Постоянный
Битрейт : 384 Кбит/сек
Каналы : 6 каналов
Расположение каналов : Front: L C R, Side: L R, LFE
Частота : 48,0 КГц
Битовая глубина : 16 бит
Метод сжатия : С потерями
Размер потока : 348 Мбайт (1%)
Язык : Russian
Аудио #2
Идентификатор : 4353 (0x1101)
Идентификатор меню : 1 (0x1)
Формат : DTS
Формат/Информация : Digital Theater Systems
Профиль формата : MA / Core
Режим смешивания : Stream extension
Идентификатор кодека : 134
Продолжительность : 2 ч. 6 м.
Вид битрейта : Переменный
Битрейт : 3097 Кбит/сек / 1510 Кбит/сек
Каналы : 8 каналов / 6 каналов
Расположение каналов : Front: L C R, Side: L R, Back: L R, LFE / Front: L C R, Side: L R, LFE
Частота : 48,0 КГц
Битовая глубина : 24 бит
Метод сжатия : Без потерь / Lossy
Язык : English
Текст
Идентификатор : 4609 (0x1201)
Идентификатор меню : 1 (0x1)
Формат : PGS
Идентификатор кодека : 144
Задержка видео : 1 с. 418 мс.
Язык : English
-

Скриншоты

[Торрент-статистика]
[Профиль]  [ЛС] 
Показать сообщения:    
Ответить на тему

Текущее время: Сегодня 10:39

Часовой пояс: GMT + 4



Вы не можете начинать темы
Вы не можете отвечать на сообщения
Вы не можете редактировать свои сообщения
Вы не можете удалять свои сообщения
Вы не можете голосовать в опросах
Вы не можете прикреплять файлы к сообщениям
Вы не можете скачивать файлы