Побудь в моей шкуре / Under the Skin (Джонатан Глейзер / Jonathan Glazer) [2013 г., Фантастика, триллер, драма, экранизация, BDRip 1080p]

Ответить на тему
 
Автор
Сообщение

awk05 ®

Пол:

Стаж: 8 лет 9 месяцев

Сообщений: 1334

Репутация: 278 [+] [-]

Откуда: Западная Украина Ривне

Пост 13-Сен-2014 20:11

[Цитировать] 

--Побудь в моей шкуре / Under the Skin -- Год выпуска: 2013
Производство: Великобритания, США, Швейцария
Жанр: Фантастика, триллер, драма, экранизация
Продолжительность: 01:48:16
Перевод: Профессиональный многоголосый
Язык субтитров: Вшитые (отключаемые) Русские, английские--Режиссер: Джонатан Глейзер / Jonathan Glazer--Актеры: Скарлетт Йоханссон (Laura), Джереми МакУильямс (The Bad Man), Линси Тейлор Маккэй (...), Даги МакКоннелл (...), Кевин МакАлинден (...), Д. Мид (...), Эндрю Горман (...), Джо Шула (), Криштоф Гадек (The Swimmer), Рой Армстронг (...), и др.--Описание фильма: Действие развивается в Шотландии, где каждый день по трассе Эдинбург-Глазго ездит задрипанная машина с роскошным водителем. За рулем пышногрудая брюнетка с огромными зелеными глазами. Она подбирает автостопщиков, в основном здоровых и мощных мужчин, и парализует их. Девица на поверку оказывается представительницей иной цивилизации, чьи сородичи развели бурную деятельность в Шотландии--Качество видео: BDRip 1080p
Формат видео: MKV
Видео кодек: AVC (High@L4.1)
Аудио кодек: AC-3
Видео: AVC, 1920x1040 (16:9), 23.976 fps, 9 200 Kbps (0.192 bit/pixel)
Аудио 1: AC-3, 48.0 KHz, 2 ch, 384 Kbps, CBR, 16 bits [Русский]
Аудио 2: DTS, 48.0 KHz, 6 ch, 1 510 Kbps, CBR, 24 bits [Английский] -- --

Знаете ли Вы, что...

  • Фильм снят по одноименному роману Мишеля Фабера.
  • На создание фильма ушло почти 10 лет. В одной из ранних версий сценария присутствовала шотландская супружеская пара, и по сюжету выяснялось, что это были замаскированные пришельцы. В то время на роль супруга в этой паре рассматривался Брэд Питт.
  • Кадр с падающей Скарлетт Йоханссон, снятый папарацци, стал дико популярным интернет-мемом. Эта сцена снималась скрытыми камерами, и только после выхода фильма выяснилось, что падение было преднамеренным.
  • Джемма Артертон, Ева Грин, Меган Фокс, Дженьюэри Джонс, Эбби Корниш, Оливия Уайлд, Аманда Сайфред, Блейк Лайвли и Джессика Бил рассматривались на главную роль.
  • Мужчины, которых персонаж Скарлетт Йоханссон заманивает в фургон, не были актерами. Джонатан Глейзер установил в фургоне скрытые камеры и сообщал мужчинам о том, что они попали в фильм, после того как сцена была снята.
  • Адам Пирсон, который играет изуродованного мужчину, сломал себе ногу, пока ехал на прослушивание для своей роли в этом фильме. Его сбило такси. Режиссер
  • Джонатан Глейзер устроил ему прослушивание на следующий день в больнице и дал ему эту роль.
  • Писатель и сценарист Александр Стюарт написал первые три версии сценария фильма.
  • Когда Лора идет по улице, можно заметить отражение члена съемочной группы в светоотражающем жилете, помогающего камере следовать за героиней.

Кадры из фильма


Тех. данные (MI)

Код:
Общее
Уникальный идентификатор                 : 254600385043253062228608794488202124548 (0xBF8A40236FFAC6009EE2BCF6DF50DD04)
Полное имя                               : E:\тест\Pobudj v moej shkure 2013 BDRip 1080p.mkv
Формат                                   : Matroska
Версия формата                           : Version 4 / Version 2
Размер файла                             : 8,39 Гбайт
Продолжительность                        : 1 ч. 48 м.
Общий поток                              : 11,1 Мбит/сек
Дата кодирования                         : UTC 2014-09-02 17:16:46
Программа кодирования                    : mkvmerge v7.0.0 ('Where We Going') 32bit built on Jun  9 2014 15:08:34
Библиотека кодирования                   : libebml v1.3.0 + libmatroska v1.4.1
Видео
Идентификатор                            : 1
Формат                                   : AVC
Формат/Информация                        : Advanced Video Codec
Профиль формата                          : High@L4.1
Параметр CABAC формата                   : Да
Параметр ReFrames формата                : 4 кадра
Идентификатор кодека                     : V_MPEG4/ISO/AVC
Продолжительность                        : 1 ч. 48 м.
Битрейт                                  : 9200 Кбит/сек
Ширина                                   : 1920 пикселей
Высота                                   : 1040 пикселей
Соотношение сторон                       : 1,85:1
Режим частоты кадров                     : Постоянный
Частота кадров                           : 23,976 кадра/сек
Цветовое пространство                    : YUV
Субдискретизация насыщенности            : 4:2:0
Битовая глубина                          : 8 бит
Тип развёртки                            : Прогрессивная
Бит/(Пиксели*Кадры)                      : 0.192
Размер потока                            : 6,79 Гбайт (81%)
Библиотека кодирования                   : x264 core 142 r2431+42 c69a006 tMod [8-bit@4:2:0 X86_64]
Настройки программы                      : cabac=1 / ref=4 / deblock=1:-3:-3 / analyse=0x3:0x113 / me=umh / subme=11 / psy=1 / fade_compensate=0.00 / psy_rd=1.00:0.05 / mixed_ref=1 / me_range=48 / chroma_me=1 / trellis=2 / 8x8dct=1 / cqm=0 / deadzone=21,11 / fast_pskip=0 / chroma_qp_offset=-3 / threads=18 / lookahead_threads=3 / sliced_threads=0 / nr=0 / decimate=0 / interlaced=0 / bluray_compat=0 / constrained_intra=0 / fgo=0 / bframes=8 / b_pyramid=2 / b_adapt=2 / b_bias=0 / direct=3 / weightb=1 / open_gop=0 / weightp=2 / keyint=240 / keyint_min=24 / scenecut=40 / intra_refresh=0 / rc_lookahead=40 / rc=2pass / mbtree=0 / bitrate=9200 / ratetol=1.0 / qcomp=0.70 / qpmin=0:0:0 / qpmax=69:69:69 / qpstep=4 / cplxblur=20.0 / qblur=0.5 / vbv_maxrate=50000 / vbv_bufsize=40000 / nal_hrd=none / filler=0 / ip_ratio=1.20 / pb_ratio=1.20 / aq=4:1.10 / aq-sensitivity=10.00 / aq-factor=1.00:1.00:1.00 / aq2=0 / aq3=0
Язык                                     : English
Default                                  : Да
Forced                                   : Нет
Аудио #1
Идентификатор                            : 2
Формат                                   : AC-3
Формат/Информация                        : Audio Coding 3
Расширение режима                        : CM (complete main)
Параметр Endianness формата              : Big
Идентификатор кодека                     : A_AC3
Продолжительность                        : 1 ч. 48 м.
Вид битрейта                             : Постоянный
Битрейт                                  : 384 Кбит/сек
Каналы                                   : 2 канала
Расположение каналов                     : Front: L R
Частота                                  : 48,0 КГц
Битовая глубина                          : 16 бит
Метод сжатия                             : С потерями
Размер потока                            : 297 Мбайт (3%)
Заголовок                                : MVO
Язык                                     : Russian
Default                                  : Да
Forced                                   : Нет
Аудио #2
Идентификатор                            : 3
Формат                                   : DTS
Формат/Информация                        : Digital Theater Systems
Режим                                    : 16
Параметр Endianness формата              : Big
Идентификатор кодека                     : A_DTS
Продолжительность                        : 1 ч. 48 м.
Вид битрейта                             : Постоянный
Битрейт                                  : 1509 Кбит/сек
Каналы                                   : 6 каналов
Расположение каналов                     : Front: L C R, Side: L R, LFE
Частота                                  : 48,0 КГц
Битовая глубина                          : 24 бит
Метод сжатия                             : С потерями
Размер потока                            : 1,14 Гбайт (14%)
Язык                                     : English
Default                                  : Нет
Forced                                   : Нет
Текст #1
Идентификатор                            : 4
Формат                                   : UTF-8
Идентификатор кодека                     : S_TEXT/UTF8
Идентификатор кодека/Информация          : UTF-8 Plain Text
Язык                                     : Russian
Default                                  : Нет
Forced                                   : Нет
Текст #2
Идентификатор                            : 5
Формат                                   : UTF-8
Идентификатор кодека                     : S_TEXT/UTF8
Идентификатор кодека/Информация          : UTF-8 Plain Text
Язык                                     : English
Default                                  : Нет
Forced                                   : Нет

_________________
[Торрент-статистика]
[Профиль]  [ЛС] 

sza

Пол:

Стаж: 9 лет 2 месяца

Сообщений: 16

Репутация: 11 [+] [-]

Откуда: Odessa

Пост 11-Мар-2015 02:15 (спустя 5 месяцев 27 дней)

[Цитировать] 

Не смотрите этот фильм, если нервы свои желеете. Мне реально нужно к психиатру идти вытравливать этот ужас (сцена с ребёнком). Я серьёзно - НЕ СОВЕТУЮ!
[Торрент-статистика]
[Профиль]  [ЛС] 

johnnyf

Пол:

Стаж: 8 лет 5 месяцев

Сообщений: 24

Репутация: 6 [+] [-]

Пост 26-Мар-2016 01:10 (спустя 1 год)

[Цитировать] 

Фильм ерунда, по сравнению с книгой. Скарлетт, конечно, умничка, но сюжет фильма и все в нем даже рядом с книгой не стояли. Фу-фу-фу...
[Торрент-статистика]
[Профиль]  [ЛС] 
Показать сообщения:    
Ответить на тему

Текущее время: Сегодня 10:37

Часовой пояс: GMT + 4



Вы не можете начинать темы
Вы не можете отвечать на сообщения
Вы не можете редактировать свои сообщения
Вы не можете удалять свои сообщения
Вы не можете голосовать в опросах
Вы не можете прикреплять файлы к сообщениям
Вы не можете скачивать файлы