Миссия невыполнима: Племя изгоев / Mission: Impossible - Rogue Nation (Кристофер МакКуорри) [2015 г., Боевик, триллер, приключения, BDRemux 1080р] [BLUEBIRD]

Ответить на тему
 
Автор
Сообщение

sergei78 ®

Пол:

Стаж: 7 лет 6 месяцев

Сообщений: 89

Репутация: 120 [+] [-]

Откуда: Бывший СССР: "Связист Кстово 100/40"

Пост 03-Ноя-2015 15:16

[Цитировать] 

-Миссия невыполнима: Племя изгоев / Mission: Impossible - Rogue Nation
«Go rogue»-
hr] Год выпуска: 2015
Страна: США, Гонконг, Китай
Жанр: Боевик, триллер, приключения
Продолжительность: 02:11:33
Перевод: Профессиональный (полное дублирование)[BLUEBIRD]-Режиссер: Кристофер МакКуорри
Студия: Paramount Pictures, Skydance Productions, Bad Robot-В ролях: Том Круз, Ребекка Фергюсон, Саймон Пегг, Джереми Реннер, Винг Рэймс, Шон Харрис, Алек Болдуин, Саймон МакБерни, Йенс Хультен, Том Холландер, Чжан Цзинчу, Матео Руфино, Фернандо Абади, Алек Утгофф, Гермиона Корфилд, Найджел Барбер, Уильям Робертс, Патрик Полетти, Мартин Кокрейн, Дэвид Пирт-Описание: Правительство решает расформировать самый подготовленный и боеспособный отряд, предназначенный для выполнения миссий любой сложности и секретности - команду Итана "Миссия невыполнима". Однако в тоже время самому Итану удается обнаружить неизвестный и таинственный синдикат, о котором только ходили слухи. Как оказалось этот синдикат состоит из изгоев и таких же специалистов высокого класса, как и сама группа Итана. Поэтому наш герой собирается совершить последнюю миссию вместе со своей группой по ликвидации этого таинственного синдиката. В противном случае синдикат уничтожит Международный Валютный Фонд и мир погрузится в экономический хаос.-Тип релиза: BDRemux 1080р
Контейнер: MKV
Видео кодек: H264 (AVC)
Аудио кодек: AC3 (Dolby Digital)
Видео: MPEG-4 AVC, 24449 Кбит/с, 1920x1080
Аудио RUS: (DTS-HD MA, 8 ch, 5313 Кбит/с
Аудио RUS: AC3, 6 ch, 384 Кбит/с
Аудио ENG: DTS-HD MA, 8 ch, 4895 Кбит/с
Аудио ENG: AC3, 6 ch, 640 Кбит/с), (AC3, 2 ch, 224 Кбит/с
Субтитры: Русские, английские-

Mi

General
Unique ID : 254259072126295842626365749069987742701 (0xBF48841CC571D701B35ED1A3A55483ED)
Complete name : D:\Mission.Impossible.Rogue.Nation.BDRemux.bog3417.mkv
Format : Matroska
Format version : Version 2
File size : 32.9 GiB
Duration : 2h 11mn
Overall bit rate mode : Variable
Overall bit rate : 35.8 Mbps
Movie name : Mission.Impossible.Rogue.Nation.2015.BDRip.1080p.BLUEBIRD
Encoded date : UTC 2015-11-05 17:30:18
Writing application : mkvmerge v7.9.0 ('Birds') 64bit
Writing library : libebml v1.3.1 + libmatroska v1.4.2
Video
ID : 1
Format : AVC
Format/Info : Advanced Video Codec
Format profile : High@L4.1
Format settings, CABAC : Yes
Format settings, ReFrames : 4 frames
Codec ID : V_MPEG4/ISO/AVC
Duration : 2h 11mn
Bit rate mode : Variable
Maximum bit rate : 30.0 Mbps
Width : 1 920 pixels
Height : 1 080 pixels
Display aspect ratio : 16:9
Frame rate mode : Constant
Frame rate : 23.976 fps
Color space : YUV
Chroma subsampling : 4:2:0
Bit depth : 8 bits
Scan type : Progressive
Default : Yes
Forced : No
Audio #1
ID : 2
Format : DTS
Format/Info : Digital Theater Systems
Format profile : MA / Core
Mode : 16
Format settings, Endianness : Big
Codec ID : A_DTS
Duration : 2h 11mn
Bit rate mode : Variable
Bit rate : Unknown / 1 509 Kbps
Channel(s) : 8 channels / 6 channels
Channel positions : Front: L C R, Side: L R, Back: L R, LFE / Front: L C R, Side: L R, LFE
Sampling rate : 48.0 KHz
Bit depth : 24 bits
Compression mode : Lossless / Lossy
Language : Russian
Default : Yes
Forced : No
Audio #2
ID : 3
Format : AC-3
Format/Info : Audio Coding 3
Mode extension : CM (complete main)
Format settings, Endianness : Big
Codec ID : A_AC3
Duration : 2h 11mn
Bit rate mode : Constant
Bit rate : 384 Kbps
Channel(s) : 6 channels
Channel positions : Front: L C R, Side: L R, LFE
Sampling rate : 48.0 KHz
Compression mode : Lossy
Stream size : 361 MiB (1%)
Language : Russian
Default : No
Forced : No
Audio #3
ID : 4
Format : DTS
Format/Info : Digital Theater Systems
Format profile : MA / Core
Mode : 16
Format settings, Endianness : Big
Codec ID : A_DTS
Duration : 2h 11mn
Bit rate mode : Variable
Bit rate : Unknown / 1 509 Kbps
Channel(s) : 8 channels / 6 channels
Channel positions : Front: L C R, Side: L R, Back: L R, LFE / Front: L C R, Side: L R, LFE
Sampling rate : 48.0 KHz
Bit depth : 24 bits
Compression mode : Lossless / Lossy
Language : English
Default : No
Forced : No
Audio #4
ID : 5
Format : AC-3
Format/Info : Audio Coding 3
Mode extension : CM (complete main)
Format settings, Endianness : Big
Codec ID : A_AC3
Duration : 2h 11mn
Bit rate mode : Constant
Bit rate : 640 Kbps
Channel(s) : 6 channels
Channel positions : Front: L C R, Side: L R, LFE
Sampling rate : 48.0 KHz
Compression mode : Lossy
Stream size : 602 MiB (2%)
Language : English
Default : No
Forced : No
Audio #5
ID : 6
Format : AC-3
Format/Info : Audio Coding 3
Mode extension : CM (complete main)
Format settings, Endianness : Big
Codec ID : A_AC3
Duration : 2h 11mn
Bit rate mode : Constant
Bit rate : 640 Kbps
Channel(s) : 6 channels
Channel positions : Front: L C R, Side: L R, LFE
Sampling rate : 48.0 KHz
Compression mode : Lossy
Stream size : 602 MiB (2%)
Language : English
Default : No
Forced : No
Audio #6
ID : 7
Format : AC-3
Format/Info : Audio Coding 3
Mode extension : CM (complete main)
Format settings, Endianness : Big
Codec ID : A_AC3
Duration : 2h 11mn
Bit rate mode : Constant
Bit rate : 224 Kbps
Channel(s) : 2 channels
Channel positions : Front: L R
Sampling rate : 48.0 KHz
Compression mode : Lossy
Stream size : 211 MiB (1%)
Language : English
Default : No
Forced : No
Text #1
ID : 8
Format : UTF-8
Codec ID : S_TEXT/UTF8
Codec ID/Info : UTF-8 Plain Text
Language : Russian
Default : Yes
Forced : No
Text #2
ID : 9
Format : UTF-8
Codec ID : S_TEXT/UTF8
Codec ID/Info : UTF-8 Plain Text
Language : Russian
Default : No
Forced : No
Text #3
ID : 10
Format : UTF-8
Codec ID : S_TEXT/UTF8
Codec ID/Info : UTF-8 Plain Text
Language : English
Default : No
Forced : No
Menu
00:00:00.000 : en:Chapter 1
00:09:53.092 : en:Chapter 2
00:20:45.702 : en:Chapter 3
00:25:32.072 : en:Chapter 4
00:32:00.668 : en:Chapter 5
00:40:03.442 : en:Chapter 6
00:49:35.555 : en:Chapter 7
01:01:01.157 : en:Chapter 8
01:09:51.687 : en:Chapter 9
01:20:20.857 : en:Chapter 10
01:29:29.322 : en:Chapter 11
01:38:32.823 : en:Chapter 12
01:48:19.409 : en:Chapter 13
01:57:13.943 : en:Chapter 14
02:03:02.708 : en:Chapter 15

Скриншоты

- -- -
[Торрент-статистика]
[Профиль]  [ЛС] 
Показать сообщения:    
Ответить на тему

Текущее время: Сегодня 11:05

Часовой пояс: GMT + 4



Вы не можете начинать темы
Вы не можете отвечать на сообщения
Вы не можете редактировать свои сообщения
Вы не можете удалять свои сообщения
Вы не можете голосовать в опросах
Вы не можете прикреплять файлы к сообщениям
Вы не можете скачивать файлы