Страшилы / The Frighteners (Питер Джексон) [1996 г., Ужасы, комедия, BDRip 1080p]

Ответить на тему
 
Автор
Сообщение

renta23 ®

Пол:

Стаж: 6 лет 7 месяцев

Сообщений: 42

Репутация: 39 [+] [-]

Откуда: Брянск

Пост 02-Сен-2015 22:14

[Цитировать] 

Страшилы
The Frighteners
---Год выпуска: 1996
Страна: Новая Зеландия, США
Жанр: Ужасы, комедия
Продолжительность: 02:02:38--Перевод: Профессиональный (многоголосый закадровый) x 5, Профессиональный (двухголосый закадровый), Авторский (одноголосый закадровый) x 3
Субтитры: Русские, английские
Режиссер: Питер Джексон
В ролях: Майкл Дж. Фокс, Трини Альварадо, Питер Добсон, Джон Эстин, Джеффри Комбс, Ди Уоллес-Стоун, Джейк Бьюзи, Чи МакБрайд, Джим Файф, Трой Эванс--Описание: Экстрасенс Фрэнк Бэннистер, который зарабатывает на жизнь тем, что за скромное вознаграждение успешно избавляет дома от полтергейста, который сам предварительно наслал, сталкивается со страшным противником — вернувшимся с того света, а вернее, задержавшемся на этом после казни, маньяком-убийцей.
В одном из эпизодов фильма описывается феномен Нинель Кулагиной, российской женщины обладающей паранормальными способностями.
Съемки фильма проходили в Новой Зеландии, в маленьком прибрежном городке Литтелтон.- -Тип релиза: BDRip 1080p
Контейнер: MKV
Видео кодек: H264 (AVC)
Аудио кодек: AC3 (Dolby Digital)
Видео: MPEG4 Video (H264), 1920x816, 23.976fps, 12.5 Mbps
Аудио #01: Русский: Dolby AC3, 48000Hz, 6ch, 448 kbps - Многоголосый, Киномания
Аудио #02: Русский: Dolby AC3, 48000Hz, 6ch, 448 kbps - Многоголосый, Премьер Видео Фильм со вставками Киномании
Аудио #03: Русский: Dolby AC3, 48000Hz, 6ch, 384 kbps - Многоголосый, Позитив-мультимедиа со вставками Киномании
Аудио #04: Русский: Dolby AC3, 48000Hz, 2ch, 192 kbps - Многоголосый, СТС со вставками Киномании
Аудио #05: Русский: Dolby AC3, 48000Hz, 6ch, 448 kbps - Двухголосый, Петр Гланц и Инна Королева
Аудио #06: Русский: Dolby AC3, 48000Hz, 6ch, 448 kbps - Одноголосый, С. Визгунов со вставками А. Гаврилова
Аудио #07: Русский: Dolby AC3, 48000Hz, 6ch, 448 kbps - Одноголосый, А. Гаврилов
Аудио #08: Русский: Dolby AC3, 48000Hz, 6ch, 448 kbps - Одноголосый, Ю. Живов со вставками А. Гаврилова
Аудио #09: Украинский: Dolby AC3, 48000 Hz, 6ch, 448 kbps - Многоголосый, ТакТреба Продакшн со вставками одноголосого zavin
Аудио #10: Английский: Dolby AC3, 48000 Hz, 6ch, 448 kbps
Формат субтитров: Softsub (SRT)
--Сэмпл

MediaInfo:

General
Unique ID : 230378176105212102150999067746569475840 (0xAD513908BA76A14F857EE4E1C12AD700)
Complete name : F:Torrent 21996.Frighteners.renta23.mkv
Format : Matroska
Format version : Version 4 / Version 2
File size : 14.3 GiB
Duration : 2h 2mn
Overall bit rate : 16.7 Mbps
Movie name : 1996 Страшилы / renta23
Encoded date : UTC 2015-09-02 13:56:22
Writing application : mkvmerge v8.1.0 ('Psychedelic Postcard') 32bit
Writing library : libebml v1.3.1 + libmatroska v1.4.2
DURATION : 02:02:36.512000000
NUMBER_OF_FRAMES : 229891
NUMBER_OF_BYTES : 411964672
_STATISTICS_WRITING_APP : mkvmerge v8.1.0 ('Psychedelic Postcard') 32bit
_STATISTICS_WRITING_DATE_UTC : 2015-09-02 13:56:22
_STATISTICS_TAGS : BPS DURATION NUMBER_OF_FRAMES NUMBER_OF_BYTES
Video
ID : 1
Format : AVC
Format/Info : Advanced Video Codec
Format profile : High@L4.1
Format settings, CABAC : Yes
Format settings, ReFrames : 4 frames
Codec ID : V_MPEG4/ISO/AVC
Duration : 2h 2mn
Bit rate : 12.5 Mbps
Width : 1 920 pixels
Height : 816 pixels
Display aspect ratio : 2.35:1
Frame rate mode : Constant
Frame rate : 23.976 fps
Color space : YUV
Chroma subsampling : 4:2:0
Bit depth : 8 bits
Scan type : Progressive
Bits/(Pixel*Frame) : 0.333
Stream size : 10.4 GiB (73%)
Title : 1996 Страшилы
Writing library : x264 core 125 r2208 d9d2288
Encoding settings : cabac=1 / ref=5 / deblock=1:-1:-1 / analyse=0x3:0x133 / me=umh / subme=11 / psy=1 / psy_rd=1.20:0.30 / mixed_ref=1 / me_range=32 / chroma_me=1 / trellis=2 / 8x8dct=1 / cqm=0 / deadzone=21,11 / fast_pskip=0 / chroma_qp_offset=-4 / threads=12 / lookahead_threads=2 / sliced_threads=0 / nr=0 / decimate=1 / interlaced=0 / bluray_compat=0 / constrained_intra=0 / bframes=8 / b_pyramid=1 / b_adapt=2 / b_bias=0 / direct=3 / weightb=1 / open_gop=0 / weightp=2 / keyint=250 / keyint_min=23 / scenecut=40 / intra_refresh=0 / rc_lookahead=50 / rc=2pass / mbtree=1 / bitrate=12500 / ratetol=1.0 / qcomp=0.60 / qpmin=0 / qpmax=69 / qpstep=4 / cplxblur=20.0 / qblur=0.5 / ip_ratio=1.40 / aq=1:1.00
Language : English
Default : Yes
Forced : No
Audio #1
ID : 2
Format : AC-3
Format/Info : Audio Coding 3
Mode extension : CM (complete main)
Format settings, Endianness : Big
Codec ID : A_AC3
Duration : 2h 2mn
Bit rate mode : Constant
Bit rate : 448 Kbps
Channel(s) : 6 channels
Channel positions : Front: L C R, Side: L R, LFE
Sampling rate : 48.0 KHz
Bit depth : 16 bits
Compression mode : Lossy
Stream size : 393 MiB (3%)
Title : Многоголосый, Киномания
Language : Russian
Default : Yes
Forced : No
Audio #2
ID : 3
Format : AC-3
Format/Info : Audio Coding 3
Mode extension : CM (complete main)
Format settings, Endianness : Big
Codec ID : A_AC3
Duration : 2h 2mn
Bit rate mode : Constant
Bit rate : 448 Kbps
Channel(s) : 6 channels
Channel positions : Front: L C R, Side: L R, LFE
Sampling rate : 48.0 KHz
Bit depth : 16 bits
Compression mode : Lossy
Stream size : 393 MiB (3%)
Title : Многоголосый, Премьер Видео Фильм со вставками Киномании
Language : Russian
Default : No
Forced : No
Audio #3
ID : 4
Format : AC-3
Format/Info : Audio Coding 3
Mode extension : CM (complete main)
Format settings, Endianness : Big
Codec ID : A_AC3
Duration : 2h 2mn
Bit rate mode : Constant
Bit rate : 384 Kbps
Channel(s) : 6 channels
Channel positions : Front: L C R, Side: L R, LFE
Sampling rate : 48.0 KHz
Bit depth : 16 bits
Compression mode : Lossy
Stream size : 337 MiB (2%)
Title : Многоголосый, Позитив-мультимедиа со вставками Киномании
Language : Russian
Default : No
Forced : No
Audio #4
ID : 5
Format : AC-3
Format/Info : Audio Coding 3
Mode extension : CM (complete main)
Format settings, Endianness : Big
Codec ID : A_AC3
Duration : 2h 2mn
Bit rate mode : Constant
Bit rate : 192 Kbps
Channel(s) : 2 channels
Channel positions : Front: L R
Sampling rate : 48.0 KHz
Bit depth : 16 bits
Compression mode : Lossy
Stream size : 168 MiB (1%)
Title : Многоголосый, СТС со вставками Киномании
Language : Russian
Default : No
Forced : No
Audio #5
ID : 6
Format : AC-3
Format/Info : Audio Coding 3
Mode extension : CM (complete main)
Format settings, Endianness : Big
Codec ID : A_AC3
Duration : 2h 2mn
Bit rate mode : Constant
Bit rate : 448 Kbps
Channel(s) : 6 channels
Channel positions : Front: L C R, Side: L R, LFE
Sampling rate : 48.0 KHz
Bit depth : 16 bits
Compression mode : Lossy
Stream size : 393 MiB (3%)
Title : Двухголосый, Петр Гланц и Инна Королева
Language : Russian
Default : No
Forced : No
Audio #6
ID : 7
Format : AC-3
Format/Info : Audio Coding 3
Mode extension : CM (complete main)
Format settings, Endianness : Big
Codec ID : A_AC3
Duration : 2h 2mn
Bit rate mode : Constant
Bit rate : 448 Kbps
Channel(s) : 6 channels
Channel positions : Front: L C R, Side: L R, LFE
Sampling rate : 48.0 KHz
Bit depth : 16 bits
Compression mode : Lossy
Stream size : 393 MiB (3%)
Title : Одноголосый, С. Визгунов со вставками А. Гаврилова
Language : Russian
Default : No
Forced : No
Audio #7
ID : 8
Format : AC-3
Format/Info : Audio Coding 3
Mode extension : CM (complete main)
Format settings, Endianness : Big
Codec ID : A_AC3
Duration : 2h 2mn
Bit rate mode : Constant
Bit rate : 448 Kbps
Channel(s) : 6 channels
Channel positions : Front: L C R, Side: L R, LFE
Sampling rate : 48.0 KHz
Bit depth : 16 bits
Compression mode : Lossy
Stream size : 393 MiB (3%)
Title : Одноголосый, А. Гаврилов
Language : Russian
Default : No
Forced : No
Audio #8
ID : 9
Format : AC-3
Format/Info : Audio Coding 3
Mode extension : CM (complete main)
Format settings, Endianness : Big
Codec ID : A_AC3
Duration : 2h 2mn
Bit rate mode : Constant
Bit rate : 448 Kbps
Channel(s) : 6 channels
Channel positions : Front: L C R, Side: L R, LFE
Sampling rate : 48.0 KHz
Bit depth : 16 bits
Compression mode : Lossy
Stream size : 393 MiB (3%)
Title : Одноголосый, Ю. Живов со вставками А. Гаврилова
Language : Russian
Default : No
Forced : No
Audio #9
ID : 10
Format : AC-3
Format/Info : Audio Coding 3
Mode extension : CM (complete main)
Format settings, Endianness : Big
Codec ID : A_AC3
Duration : 2h 2mn
Bit rate mode : Constant
Bit rate : 448 Kbps
Channel(s) : 6 channels
Channel positions : Front: L C R, Side: L R, LFE
Sampling rate : 48.0 KHz
Bit depth : 16 bits
Compression mode : Lossy
Stream size : 393 MiB (3%)
Title : Многоголосый, ТакТреба Продакшн со вставками одноголосого zavin
Language : Ukrainian
Default : No
Forced : No
Audio #10
ID : 11
Format : AC-3
Format/Info : Audio Coding 3
Mode extension : CM (complete main)
Format settings, Endianness : Big
Codec ID : A_AC3
Duration : 2h 2mn
Bit rate mode : Constant
Bit rate : 448 Kbps
Channel(s) : 6 channels
Channel positions : Front: L C R, Side: L R, LFE
Sampling rate : 48.0 KHz
Bit depth : 16 bits
Compression mode : Lossy
Stream size : 393 MiB (3%)
Title : Оригинал
Language : English
Default : No
Forced : No
Text #1
ID : 12
Format : UTF-8
Codec ID : S_TEXT/UTF8
Codec ID/Info : UTF-8 Plain Text
Language : Russian
Default : No
Forced : No
Text #2
ID : 13
Format : UTF-8
Codec ID : S_TEXT/UTF8
Codec ID/Info : UTF-8 Plain Text
Language : English
Default : No
Forced : No
Menu
00:00:00.000 : :Beginning
00:02:40.533 : :Main Titles
00:08:49.733 : :You've Ruptured My Lawn
00:09:59.116 : :Patricia Never Leaves the House
00:12:06.366 : :Newsflash, 1964
00:15:21.983 : :Callng Mr. Bannister
00:19:51.950 : :What's With the Number?
00:20:44.616 : :The Ectoplasmic Associates
00:22:42.816 : :Stuck in the Door
00:23:49.983 : :Two in the Shower
00:27:50.116 : :Time to Get Seriously Scary
00:29:14.366 : :Airborne Babies
00:31:14.233 : :Too Many Funerals
00:33:50.950 : :You Appear to Be Dead, Ray!
00:36:34.316 : :Drill Sergeant Hiles
00:37:59.366 : :The Premature Burial
00:41:46.483 : :Three for Dinner
00:45:35.566 : :The Soul Collector
00:49:27.666 : :Special Agent Dammers
00:52:19.033 : :Debra's Death
00:55:01.533 : :Dark Business in Fairwater
00:55:51.900 : :Museum Mayhem
00:59:57.566 : :The Reaper Strikes
01:01:16.150 : :Magda Passes Over
01:02:37.250 : :The Prime Suspect
01:04:09.116 : :Back Seat Passenger
01:04:44.033 : :The Interrogation
01:09:34.566 : :He Doesn't Believe Anymore
01:11:16.200 : :A Cry for Help
01:17:20.616 : :Ray Loses Faith
01:18:22.233 : :What Are You Afraid Of
01:20:43.066 : :Cyrus and Stuart to the Rescue
01:22:57.233 : :An Out of Body Experience
01:28:00.200 : :The Face of Death
01:33:04.066 : :He's Back
01:35:18.033 : :The Killer Couple
01:37:28.116 : :Fun with Knives
01:39:28.150 : :The Portal Strikes
01:40:13.233 : :Kitchen Chase
01:42:16.316 : :Guess That Makes You Number One
01:43:31.866 : :Blast From the Past
01:44:58.783 : :Dammer's Loses His Head
01:49:32.233 : :Fun in the Morgue
01:51:36.866 : :In the Mood for Vivisection
01:52:12.283 : :The Express Bus to Hell
01:54:47.983 : :Time to Go Home
01:56:48.900 : :Life After Death
01:58:31.366 : :The Final Titles

Скриншоты:


[Торрент-статистика]
[Профиль]  [ЛС] 
Показать сообщения:    
Ответить на тему

Текущее время: Сегодня 09:50

Часовой пояс: GMT + 4



Вы не можете начинать темы
Вы не можете отвечать на сообщения
Вы не можете редактировать свои сообщения
Вы не можете удалять свои сообщения
Вы не можете голосовать в опросах
Вы не можете прикреплять файлы к сообщениям
Вы не можете скачивать файлы