Миссия невыполнима: Протокол Фантом / Mission: Impossible - Ghost Protocol (Брэд Бёрд / Brad Bird) [2011, Боевик, Триллер, Приключения, BDRip 720p] [Лицензия]

Ответить на тему
 
Автор
Сообщение

TiZAr ®

Пол:

Стаж: 7 лет 7 месяцев

Сообщений: 815

Репутация: 1160 [+] [-]

Откуда: Россия

Пост 21-Авг-2015 21:13

[Цитировать] 

Миссия невыполнима: Протокол Фантом / Mission: Impossible - Ghost Protocol- Информация о фильме
Название: Миссия невыполнима: Протокол Фантом
Оригинальное название: Mission: Impossible - Ghost Protocol
Год выхода: 2011
Жанр: Боевик, Триллер, Приключения
В ролях: Том Круз (Ethan Hunt), Джереми Реннер (William Brandt), Саймон Пегг (Benji Dunn), Пола Пэттон (Jane Carter), Микаэл Нюквист (Kurt Hendricks), Владимир Машков (Anatoly Sidorov), Самули Эдельманн (Wistrom), Иван Шведов (Leonid Lisenker), Анил Капур (Brij Nath), Леа Сейду (Sabine Moreau), Джош Холлоуэй (Trevor Hanaway), Павел Криз (Marek Stefanski)
Режиссёр: Брэд Бёрд / Brad Bird
О фильме: Специальный агент отряда «Миссия невыполнима» Итан Хант и его коллеги несправедливо обвинены в причастности к взрыву Кремля. Президент инициирует «Протокол Фантом», в результате которого спецподразделение ликвидировано, и Итан остается без какой-либо поддержки. Он намерен очистить свое доброе имя и предотвратить новую атаку, но делать это ему придется вместе с командой коллег, истинных мотивов которых он до конца не знает.«Плана нет. Помощи нет. Выбора нет»
Релиз от

Автор рипа: Rensler
Выпущено: США, ОАЭ, Чехия
Студия: Paramount Pictures, Skydance Productions, Bad Robot
Продолжительность: 02:12:56
Перевод:
• Профессиональный (полное дублирование) BD CEE
• Авторский (одноголосый, закадровый) «Юрий Сербин»
Оригинальная аудиодорожка: Английская
Субтитры: Русские (форсированные, полные х 2), Английские (форсированные, полные, SDH)
Главы: Сохранены чаптеры с оригинального Blu-ray Disc
Файл:
Формат: MKV
Качество: BDRip 720p (источник: / Blu-ray CEE 1080p AVC DD5.1)
Видео: 1280x534 (2,40:1) at 23.976, MPEG-4 AVC ~ 5364 kbps avg, 0.327 bit/pixel
Аудио#1: 48 kHz/16-bit, AC3 Dolby Digital, 3/2 (L,C,R,l,r) + LFE ch, ~ 640 kbps avg | RUS, Blu-ray
Аудио#2: 48 kHz/16-bit, AC3 Dolby Digital, 3/2 (L,C,R,l,r) + LFE ch, ~ 640 kbps avg | RUS, Y.Serbin
Аудио#3: 48 kHz/16-bit, AC3 Dolby Digital, 3/2 (L,C,R,l,r) + LFE ch, ~ 640 kbps avg | ENG
Размер: 6,76 GB (DVD-9)
Скачать: Семпл

log@x.264

x264 [info]: frame I:1692 Avg QP:15.86 size:112196
x264 [info]: frame P:41765 Avg QP:16.74 size: 49445
x264 [info]: frame B:147783 Avg QP:18.75 size: 19970
x264 [info]: consecutive B-frames: 2.7% 3.3% 8.0% 16.7% 15.3% 40.6% 6.5% 1.8% 1.8% 1.3% 1.2% 0.7%
x264 [info]: ref P L0: 46.3% 8.7% 20.2% 7.4% 6.6% 4.2% 4.0% 2.3% 0.4% 0.0%

MediaInfo

Уникальный идентификатор : 228425859438046705919390917975049383144 (0xABD9386408F345AFB81C98725BBE2CE8)
Полное имя : Mission.Impossible.Ghost.Protocol.2011.720p.BluRay.Rus.Eng.-HQCLUB.mkv
Формат : Matroska
Версия формата : Version 4 / Version 2
Размер файла : 6,77 Гбайт
Продолжительность : 2 ч. 12 м.
Общий поток : 7286 Кбит/сек
Название фильма : Миссия невыполнима: Протокол Фантом / Mission: Impossible - Ghost Protocol (2011) Blu-ray 720p
Дата кодирования : UTC 2010-02-22 21:41:31
Программа кодирования : mkvmerge v5.8.0 ('No Sleep / Pillow') built on Sep 30 2012 10:57:14
Библиотека кодирования : libebml v1.3.0 + libmatroska v1.4.0
Attachements : Cover.png
Видео
Идентификатор : 1
Формат : AVC
Формат/Информация : Advanced Video Codec
Профиль формата : High@L4.1
Параметр CABAC формата : Да
Параметр ReFrames формата : 8 кадров
Идентификатор кодека : V_MPEG4/ISO/AVC
Продолжительность : 2 ч. 12 м.
Битрейт : 5364 Кбит/сек
Ширина : 1280 пикселей
Высота : 534 пикселя
Соотношение сторон : 2,40:1
Режим частоты кадров : Постоянный
Частота кадров : 23,976 кадра/сек
Цветовое пространство : YUV
Субдискретизация насыщенности : 4:2:0
Битовая глубина : 8 бит
Тип развёртки : Прогрессивная
Бит/(Пиксели*Кадры) : 0.327
Размер потока : 4,85 Гбайт (72%)
Заголовок : Release by Rensler
Библиотека кодирования : x264 core 148 r2579 73ae2d1
Настройки программы : cabac=1 / ref=8 / deblock=1:-3:-3 / analyse=0x3:0x113 / me=tesa / subme=11 / psy=1 / psy_rd=1.10:0.10 / mixed_ref=1 / me_range=32 / chroma_me=1 / trellis=2 / 8x8dct=1 / cqm=0 / deadzone=21,11 / fast_pskip=0 / chroma_qp_offset=-3 / threads=3 / lookahead_threads=1 / sliced_threads=0 / nr=0 / decimate=0 / interlaced=0 / bluray_compat=0 / constrained_intra=0 / bframes=11 / b_pyramid=2 / b_adapt=2 / b_bias=0 / direct=3 / weightb=1 / open_gop=0 / weightp=2 / keyint=240 / keyint_min=23 / scenecut=40 / intra_refresh=0 / rc_lookahead=60 / rc=2pass / mbtree=0 / bitrate=5364 / ratetol=1.0 / qcomp=0.80 / qpmin=0 / qpmax=69 / qpstep=4 / cplxblur=20.0 / qblur=0.5 / vbv_maxrate=50000 / vbv_bufsize=62500 / nal_hrd=none / filler=0 / ip_ratio=1.40 / pb_ratio=1.30 / aq=2:0.85
Язык : English
Default : Да
Forced : Нет
Аудио #1
Идентификатор : 2
Формат : AC-3
Формат/Информация : Audio Coding 3
Расширение режима : CM (complete main)
Параметр Endianness формата : Big
Идентификатор кодека : A_AC3
Продолжительность : 2 ч. 12 м.
Вид битрейта : Постоянный
Битрейт : 640 Кбит/сек
Каналы : 6 каналов
Расположение каналов : Front: L C R, Side: L R, LFE
Частота : 48,0 КГц
Битовая глубина : 16 бит
Метод сжатия : С потерями
Размер потока : 609 Мбайт (9%)
Заголовок : BD CEE
Язык : Russian
Default : Да
Forced : Нет
Аудио #2
Идентификатор : 3
Формат : AC-3
Формат/Информация : Audio Coding 3
Расширение режима : CM (complete main)
Параметр Endianness формата : Big
Идентификатор кодека : A_AC3
Продолжительность : 2 ч. 12 м.
Вид битрейта : Постоянный
Битрейт : 640 Кбит/сек
Каналы : 6 каналов
Расположение каналов : Front: L C R, Side: L R, LFE
Частота : 48,0 КГц
Битовая глубина : 16 бит
Метод сжатия : С потерями
Размер потока : 609 Мбайт (9%)
Заголовок : AVO Serbin
Язык : Russian
Default : Нет
Forced : Нет
Аудио #3
Идентификатор : 4
Формат : AC-3
Формат/Информация : Audio Coding 3
Расширение режима : CM (complete main)
Параметр Endianness формата : Big
Идентификатор кодека : A_AC3
Продолжительность : 2 ч. 12 м.
Вид битрейта : Постоянный
Битрейт : 640 Кбит/сек
Каналы : 6 каналов
Расположение каналов : Front: L C R, Side: L R, LFE
Частота : 48,0 КГц
Битовая глубина : 16 бит
Метод сжатия : С потерями
Размер потока : 609 Мбайт (9%)
Заголовок : Original
Язык : English
Default : Нет
Forced : Нет
Текст #1
Идентификатор : 5
Формат : UTF-8
Идентификатор кодека : S_TEXT/UTF8
Идентификатор кодека/Информация : UTF-8 Plain Text
Заголовок : Forced
Язык : Russian
Default : Да
Forced : Нет
Текст #2
Идентификатор : 6
Формат : UTF-8
Идентификатор кодека : S_TEXT/UTF8
Идентификатор кодека/Информация : UTF-8 Plain Text
Заголовок : Full 1
Язык : Russian
Default : Нет
Forced : Нет
Текст #3
Идентификатор : 7
Формат : UTF-8
Идентификатор кодека : S_TEXT/UTF8
Идентификатор кодека/Информация : UTF-8 Plain Text
Заголовок : Full 2
Язык : Russian
Default : Нет
Forced : Нет
Текст #4
Идентификатор : 8
Формат : UTF-8
Идентификатор кодека : S_TEXT/UTF8
Идентификатор кодека/Информация : UTF-8 Plain Text
Заголовок : Forced
Язык : English
Default : Нет
Forced : Нет
Текст #5
Идентификатор : 9
Формат : UTF-8
Идентификатор кодека : S_TEXT/UTF8
Идентификатор кодека/Информация : UTF-8 Plain Text
Заголовок : Full
Язык : English
Default : Нет
Forced : Нет
Текст #6
Идентификатор : 10
Формат : UTF-8
Идентификатор кодека : S_TEXT/UTF8
Идентификатор кодека/Информация : UTF-8 Plain Text
Заголовок : SDH
Язык : English
Default : Нет
Forced : Нет
Меню
00:00:00.000 : :Chapter 1
00:04:41.906 : :Chapter 2
00:11:28.896 : :Chapter 3
00:20:01.950 : :Chapter 4
00:27:35.320 : :Chapter 5
00:33:28.172 : :Chapter 6
00:38:18.087 : :Chapter 7
00:44:46.100 : :Chapter 8
00:51:37.219 : :Chapter 9
00:56:05.153 : :Chapter 10
01:02:50.183 : :Chapter 11
01:09:17.820 : :Chapter 12
01:16:32.379 : :Chapter 13
01:22:18.516 : :Chapter 14
01:31:17.054 : :Chapter 15
01:35:57.376 : :Chapter 16
01:42:49.913 : :Chapter 17
01:51:01.780 : :Chapter 18
01:58:26.390 : :Chapter 19
02:05:58.842 : :Chapter 20
02:12:56.051 : :Chapter 21

Скриншоты


_________________
Не стоит обращать внимания на отсутствие сидов на моих раздачах. Все мои релизы мультитрекерные - нет сидов, включите DHT.
За релизами в HD качестве обращайтесь в личку, либо отписывайтесь в теме.
[Торрент-статистика]
[Профиль]  [ЛС] 
Показать сообщения:    
Ответить на тему

Текущее время: Сегодня 12:12

Часовой пояс: GMT + 4



Вы не можете начинать темы
Вы не можете отвечать на сообщения
Вы не можете редактировать свои сообщения
Вы не можете удалять свои сообщения
Вы не можете голосовать в опросах
Вы не можете прикреплять файлы к сообщениям
Вы не можете скачивать файлы