Агент Джонни Инглиш / Johnny English (Питер Хауит / Peter Howitt) [2003 г., боевик, комедия, приключения, BDRemux 1080p] Dub + AVO (Королев)

Ответить на тему
 
Автор
Сообщение

Волк ®

Пол:

Стаж: 9 лет 5 месяцев

Сообщений: 892

Репутация: 333 [+] [-]

Откуда: Армения

Пост 12-Янв-2012 20:59

[Цитировать] 

Агент Джонни Инглиш / Johnny English-
Год выпуска: 2003
Страна: США
Жанр: боевик, комедия, приключения
Продолжительность: 01:27:25
Перевод: Профессиональный (полное дублирование)
Перевод: Авторский (одноголосый, закадровый) Владимир Королев
Субтитры: русские (x2), английские-Режиссер: Питер Хауит / Peter Howitt-В ролях: Роуэн Эткинсон, Натали Имбрулья, Бен Миллер, Джон Малкович, Тим Пиготт-Смит, Кевин МакНэлли, Оливер Форд Дэвис, Дуглас МакФерран, Таша ди Вашконселуш, Грег Уайз-Описание: История самого некомпетентного и недалекого Британского дипломата, которого только можно представить, которого ошибочно принимают за самого знаменитого и опасного шпиона Великобритании, Джонни Инглиша. Из-за этой путаницы герой оказывается вовлеченным в смертельную схватку с авторами очередного дьявольского плана.-Качество: BDRemux (CEE)
Формат: MKV
Видео: VC-1 Video 30269 kbps 1080p / 23,976 fps / 16:9 / Advanced Profile 3
Аудио: DTS Audio Russian 768 kbps 5.1 / 48 kHz / 768 kbps / 24-bit
Аудио: DTS-HD Master Audio Russian 5.1 / 48 kHz / 4172 kbps / 24-bit (DTS Core: 5.1 / 48 kHz / 1509 kbps / 24-bit) | Королев
Аудио: DTS-HD Master Audio English 5.1 / 48 kHz / 4167 kbps / 24-bit (DTS Core: 5.1 / 48 kHz / 1509 kbps / 24-bit)-

Доп. информация

Дорожка №2 получена наложением чистого голоса на центр декодированного DTS-HD MA

MI

General
Unique ID : 226630983974377261373435208877469634201 (0xAA7F8A32B4DCC810937C418E77808E99)
Complete name : G:\bluray\Johnny.English.2003.1080p.Bluray.VC1.Remux.mkv
Format : Matroska
Format version : Version 2
File size : 24.1 GiB
Duration : 1h 27mn
Overall bit rate : 39.4 Mbps
Movie name : Johnny.English.2003.1080p.Bluray.AVC.Remux
Encoded date : UTC 2012-01-05 17:57:43
Writing application : mkvmerge v4.9.1 ('Ich will') сборка от Jul 11 2011 23:53:15
Writing library : libebml v1.2.1 + libmatroska v1.1.1
Video
ID : 1
Format : VC-1
Format profile : AP@L3
Codec ID : WVC1
Codec ID/Hint : Microsoft
Duration : 1h 27mn
Bit rate : 34.5 Mbps
Width : 1 920 pixels
Height : 1 080 pixels
Display aspect ratio : 16:9
Frame rate : 23.976 fps
Chroma subsampling : 4:2:0
Bit depth : 8 bits
Scan type : Progressive
Compression mode : Lossy
Bits/(Pixel*Frame) : 0.693
Stream size : 21.1 GiB (88%)
Title : uralmix
Audio #1
ID : 2
Format : DTS
Format/Info : Digital Theater Systems
Codec ID : A_DTS
Duration : 1h 27mn
Bit rate mode : Constant
Bit rate : 755 Kbps
Channel(s) : 6 channels
Channel positions : Front: L C R, Side: L R, LFE
Sampling rate : 48.0 KHz
Bit depth : 24 bits
Compression mode : Lossy
Stream size : 472 MiB (2%)
Title : дубляж
Language : Russian
Audio #2
ID : 3
Format : DTS
Format/Info : Digital Theater Systems
Format profile : MA / Core
Codec ID : A_DTS
Duration : 1h 27mn
Bit rate mode : Variable
Bit rate : 1 804 Kbps / 1 510 Kbps
Channel(s) : 6 channels
Channel positions : Front: L C R, Side: L R, LFE
Sampling rate : 48.0 KHz
Bit depth : 24 bits
Compression mode : Lossless / Lossy
Title : Владимир Королев
Language : Russian
Audio #3
ID : 4
Format : DTS
Format/Info : Digital Theater Systems
Format profile : MA / Core
Codec ID : A_DTS
Duration : 1h 27mn
Bit rate mode : Variable
Bit rate : 1 576 Kbps / 1 510 Kbps
Channel(s) : 6 channels
Channel positions : Front: L C R, Side: L R, LFE
Sampling rate : 48.0 KHz
Bit depth : 24 bits
Compression mode : Lossless / Lossy
Language : English
Text #1
ID : 5
Format : UTF-8
Codec ID : S_TEXT/UTF8
Codec ID/Info : UTF-8 Plain Text
Language : Russian
Text #2
ID : 6
Format : UTF-8
Codec ID : S_TEXT/UTF8
Codec ID/Info : UTF-8 Plain Text
Language : Russian
Text #3
ID : 7
Format : UTF-8
Codec ID : S_TEXT/UTF8
Codec ID/Info : UTF-8 Plain Text
Title : SRT
Language : English
Text #4
ID : 8
Format : PGS
Muxing mode : zlib
Codec ID : S_HDMV/PGS
Codec ID/Info : The same subtitle format used on BDs/HD-DVDs
Title : PGS
Language : English
Menu
00:00:00.000 : en:00:00:00.000
00:03:55.318 : en:00:03:55.318
00:08:12.867 : en:00:08:12.867
00:14:05.094 : en:00:14:05.094
00:17:51.404 : en:00:17:51.404
00:22:31.600 : en:00:22:31.600
00:26:45.729 : en:00:26:45.729
00:33:33.678 : en:00:33:33.678
00:39:12.433 : en:00:39:12.433
00:46:41.674 : en:00:46:41.674
00:49:05.734 : en:00:49:05.734
00:54:09.913 : en:00:54:09.913
00:57:37.746 : en:00:57:37.746
01:02:20.320 : en:01:02:20.320
01:04:59.020 : en:01:04:59.020
01:08:55.298 : en:01:08:55.298
01:13:08.384 : en:01:13:08.384
01:18:03.637 : en:01:18:03.637
01:21:19.708 : en:01:21:19.708
01:22:56.305 : en:01:22:56.305

Скриншоты


_________________
Мои раздачи
[Торрент-статистика]
[Профиль]  [ЛС] 

Wison

Стаж: 9 лет

Сообщений: 9

Репутация: 0 [+] [-]

Пост 05-Май-2013 11:02 (спустя 1 год 3 месяца)

[Цитировать] 

помогите скачать, плииз
[Торрент-статистика]
[Профиль]  [ЛС] 
Показать сообщения:    
Ответить на тему

Текущее время: Сегодня 04:06

Часовой пояс: GMT + 4



Вы не можете начинать темы
Вы не можете отвечать на сообщения
Вы не можете редактировать свои сообщения
Вы не можете удалять свои сообщения
Вы не можете голосовать в опросах
Вы не можете прикреплять файлы к сообщениям
Вы не можете скачивать файлы