50 первых поцелуев / 50 First Dates (Питер Сигал / Peter Segal) [2004 г., Комедия, мелодрама, BDRip 720p] DUB + (Sub Rus)

Ответить на тему
 
Автор
Сообщение

awk05 ®

Пол:

Стаж: 8 лет 9 месяцев

Сообщений: 1334

Репутация: 278 [+] [-]

Откуда: Западная Украина Ривне

Пост 22-Май-2014 15:31

[Цитировать] 

--50 первых поцелуев / 50 First Dates-- Год выхода: 2004
Выпущено: США
Жанр: Комедия, мелодрама
Продолжительность: 01:39:03
Перевод: Профессиональный (полное дублирование)
Субтитры: Русские | Полные--Режиссер: Питер Сигал / Peter Segal--В ролях: Адам Сэндлер, Дрю Бэрримор, Роб Шнайдер, Шон Эстин, Люсия Струс, Дэн Эйкройд, Эми Хилл, Аллен Коверт, Блейк Кларк, Майя Рудольф--Сюжет фильма Генри Рот влюбляется в очаровательную Люси. Несмотря на небольшие помехи, уже к вечеру настойчивому Ромео удается добиться взаимности красавицы. Молодые люди счастливы и уверены, что их любовь продлится вечно... Увы, из-за последствий автомобильной аварии, девушка утром не помнит ничего из того, что произошло накануне. Несмотря на это, Генри не намерен сдаваться и собирается бороться за свою любовь, даже если ради этого ему и придется влюблять в себя Люси каждый день!--Качество: BDRip 720p
Формат: MKV
Видео кодек: AVC (High@L4.1)
Аудио кодеk: AC3
Видео: 1280x534 (2.40:1), 2778 Кбит/сек, 23.976 кадр/сек, 0.170 Бит/[Пиксели*Кадры]
Аудио: 6 каналов Front: L C R, Side: L R, LFE, 48,0 КГц, 384 Кбит/сек, 16 бит CBR[RUS] -- --

Скриншоты

Медиа-Инфо

General
Unique ID : 195997839962671415600212181241998294533 (0x9373CF9744E0D413B0F5341DEC0F3E05)
Complete name : 50 First Dates.(2004).BDRip.720p.mkv
Format : Matroska
Format version : Version 4 / Version 2
File size : 2.19 GiB
Duration : 1h 39mn
Overall bit rate : 3 161 Kbps
Movie name : 50 First Dates.(2004).BDRip.720p.
Encoded date : UTC 2013-02-03 14:57:24
Writing application : mkvmerge v6.0.0 ('Coming Up For Air') built on Jan 20 2013 09:52:00
Writing library : libebml v1.3.0 + libmatroska v1.4.0
Video
ID : 1
Format : AVC
Format/Info : Advanced Video Codec
Format profile : High@L4.1
Format settings, CABAC : Yes
Format settings, ReFrames : 12 frames
Codec ID : V_MPEG4/ISO/AVC
Duration : 1h 39mn
Bit rate : 2 778 Kbps
Width : 1 280 pixels
Height : 534 pixels
Display aspect ratio : 2.40:1
Frame rate mode : Constant
Frame rate : 23.976 fps
Color space : YUV
Chroma subsampling : 4:2:0
Bit depth : 8 bits
Scan type : Progressive
Bits/(Pixel*Frame) : 0.170
Stream size : 1.88 GiB (86%)
Title : 50 первых поцелуев.(2004).BDRip.720p.
Writing library : x264 core 129 r2230 1cffe9f
Encoding settings : cabac=1 / ref=12 / deblock=1:0:0 / analyse=0x3:0x133 / me=umh / subme=11 / psy=1 / psy_rd=1.00:0.00 / mixed_ref=1 / me_range=32 / chroma_me=1 / trellis=2 / 8x8dct=1 / cqm=0 / deadzone=21,11 / fast_pskip=0 / chroma_qp_offset=-2 / threads=9 / lookahead_threads=1 / sliced_threads=0 / nr=0 / decimate=1 / interlaced=0 / bluray_compat=0 / constrained_intra=0 / bframes=8 / b_pyramid=2 / b_adapt=2 / b_bias=0 / direct=3 / weightb=1 / open_gop=0 / weightp=2 / keyint=240 / keyint_min=24 / scenecut=40 / intra_refresh=0 / rc_lookahead=60 / rc=2pass / mbtree=1 / bitrate=2778 / ratetol=1.0 / qcomp=0.60 / qpmin=0 / qpmax=69 / qpstep=4 / cplxblur=20.0 / qblur=0.5 / ip_ratio=1.40 / aq=1:1.00
Language : English
Default : Yes
Forced : No
Audio
ID : 2
Format : AC-3
Format/Info : Audio Coding 3
Mode extension : CM (complete main)
Format settings, Endianness : Big
Codec ID : A_AC3
Duration : 1h 39mn
Bit rate mode : Constant
Bit rate : 384 Kbps
Channel(s) : 6 channels
Channel positions : Front: L C R, Side: L R, LFE
Sampling rate : 44.1 KHz
Bit depth : 16 bits
Compression mode : Lossy
Stream size : 272 MiB (12%)
Title : Дублированный
Language : Russian
Default : Yes
Forced : No
Text
ID : 3
Format : UTF-8
Codec ID : S_TEXT/UTF8
Codec ID/Info : UTF-8 Plain Text
Title : Русские (полные)
Language : Russian
Default : No
Forced : No
Menu
00:00:00.000 : en:00:00:00.000
00:05:27.243 : en:00:05:27.243
00:11:36.946 : en:00:11:36.946
00:21:21.279 : en:00:21:21.279
00:24:40.103 : en:00:24:40.103
00:31:34.225 : en:00:31:34.225
00:34:23.061 : en:00:34:23.061
00:40:57.079 : en:00:40:57.079
00:46:19.318 : en:00:46:19.318
00:51:15.739 : en:00:51:15.739
00:56:09.532 : en:00:56:09.532
01:03:39.815 : en:01:03:39.815
01:08:50.501 : en:01:08:50.501
01:13:59.560 : en:01:13:59.560
01:26:55.627 : en:01:26:55.627
01:28:35.935 : en:01:28:35.935

_________________
[Торрент-статистика]
[Профиль]  [ЛС] 
Показать сообщения:    
Ответить на тему

Текущее время: Сегодня 10:06

Часовой пояс: GMT + 4



Вы не можете начинать темы
Вы не можете отвечать на сообщения
Вы не можете редактировать свои сообщения
Вы не можете удалять свои сообщения
Вы не можете голосовать в опросах
Вы не можете прикреплять файлы к сообщениям
Вы не можете скачивать файлы