Судная ночь 2 / The Purge: Anarchy (Джеймс ДеМонако / James DeMonaco) [2014 г., триллер, криминал, боевик, WEB-DL 720p] [iTunes]

Ответить на тему
 
Автор
Сообщение

ArtZak ®

Пол:

Стаж: 9 лет 5 месяцев

Сообщений: 2829

Репутация: 1366 [+] [-]

Откуда: Россия

Пост 17-Сен-2014 01:36

[Цитировать] 

Судная ночь 2 / The Purge: Anarchy
«Добро пожаловать в идеальное будущее, где одну ночь в году все преступления легальны»
- Год выпуска: 2014
Страна: США, Франция / Blumhouse Productions, Platinum Dunes, Universal Pictures, Why Not Productions
Жанр: триллер, криминал, боевик
Продолжительность: 01:43:28
Перевод: Профессиональный (дублированный) [iTunes]
Субтитры: нет
Оригинальная аудиодорожка: нет
Навигация по главам: есть
Режиссер: Джеймс ДеМонако / James DeMonaco- -В ролях:
Чад Морган, Мэтт Ласки, Брэндон Кинер, Джаспер Коул, Лили Найт, Бел Эрнандез, Нико Никотера, Роберта Вальдеррама, Лейкит Стэнфилд, Эдвин Ходж, Кастуло Герра, Ноэль Гульеми, Джек Конли, Джон Бизли, Жустина Мачадо, Майкл К. Уильямс, Киле Санчез, Зак Гилфорд, Кармен Эджого, Фрэнк Грилло и др.
Описание:
Недалёкое будущее. На планете царит мир и покой, нулевая преступность и никаких войн. А причиной всему - политика властей, раз в год устраивающих «Судную ночь», когда полностью отменяются все законы и воцаряется полный хаос. В эту ночь можно выпустить пар, свести счеты с ненавистными соседями или начальниками, оторваться по полной и совершить любое преступление. Кто-то крепко-накрепко закрывает двери и окна, пытаясь дожить до рассвета. Но самые отчаянные вооружаются и выходят на улицы.
Качество: WEB-DL 720p | Сэмпл
Формат: MKV
Видео: AVC, 1280x532 (2.40:1), 23.976 fps, 3 934 Kbps (0.241 bit/pixel)
Аудио: AC-3, 48.0 KHz, 6 ch, 384 Kbps, CBR (Russian)

MI

Код:
General
Unique ID                                : 237085101191193989883626964898961434619 (0xB25CEDF8A440655487BD767D204827FB)
Complete name                            : C:\downloads\CudHaYa.H04j.2.2014.D.WEB-DL.720p.mkv
Format                                   : Matroska
Format version                           : Version 4 / Version 2
File size                                : 3.18 GiB
Duration                                 : 1h 43mn
Overall bit rate                         : 4 406 Kbps
Encoded date                             : UTC 2014-09-24 20:11:01
Writing application                      : mkvmerge v6.9.1 ('Blue Panther') 64bit built on Apr 18 2014 18:23:38
Writing library                          : libebml v1.3.0 + libmatroska v1.4.1
Video
ID                                       : 1
Format                                   : AVC
Format/Info                              : Advanced Video Codec
Format profile                           : Main@L3.1
Format settings, CABAC                   : No
Format settings, ReFrames                : 2 frames
Codec ID                                 : V_MPEG4/ISO/AVC
Duration                                 : 1h 43mn
Bit rate                                 : 3 934 Kbps
Width                                    : 1 280 pixels
Height                                   : 532 pixels
Display aspect ratio                     : 2.40:1
Frame rate mode                          : Constant
Frame rate                               : 23.976 fps
Color space                              : YUV
Chroma subsampling                       : 4:2:0
Bit depth                                : 8 bits
Scan type                                : Progressive
Bits/(Pixel*Frame)                       : 0.241
Stream size                              : 2.84 GiB (89%)
Language                                 : English
Default                                  : Yes
Forced                                   : No
Color primaries                          : BT.709
Transfer characteristics                 : BT.709
Matrix coefficients                      : BT.709
Audio
ID                                       : 2
Format                                   : AC-3
Format/Info                              : Audio Coding 3
Mode extension                           : CM (complete main)
Format settings, Endianness              : Big
Codec ID                                 : A_AC3
Duration                                 : 1h 43mn
Bit rate mode                            : Constant
Bit rate                                 : 384 Kbps
Channel count                            : 6 channels
Channel positions                        : Front: L C R, Side: L R, LFE
Sampling rate                            : 48.0 KHz
Bit depth                                : 16 bits
Compression mode                         : Lossy
Stream size                              : 284 MiB (9%)
Language                                 : Russian
Default                                  : Yes
Forced                                   : No
Menu
00:00:00.000                             : en:глава 1
00:05:16.000                             : en:глава 2
00:09:51.000                             : en:глава 3
00:14:39.000                             : en:глава 4
00:18:34.000                             : en:глава 5
00:23:19.000                             : en:глава 6
00:31:23.000                             : en:глава 7
00:36:30.000                             : en:глава 8
00:41:20.000                             : en:глава 9
00:47:15.000                             : en:глава 10
00:51:40.000                             : en:глава 11
00:57:29.000                             : en:глава 12
01:01:50.000                             : en:глава 13
01:06:51.000                             : en:глава 14
01:10:08.000                             : en:глава 15
01:15:47.000                             : en:глава 16
01:21:11.000                             : en:глава 17
01:26:43.000                             : en:глава 18
01:31:19.000                             : en:глава 19
01:36:43.000                             : en:глава 20

Скриншоты

[Торрент-статистика]
[Профиль]  [ЛС] 

ArtZak ®

Пол:

Стаж: 9 лет 5 месяцев

Сообщений: 2829

Репутация: 1366 [+] [-]

Откуда: Россия

Пост 25-Сен-2014 16:35 (спустя 8 дней)

[Цитировать] 

Обновлено на WEB-DL 720p [iTunes]
[Торрент-статистика]
[Профиль]  [ЛС] 
Показать сообщения:    
Ответить на тему

Текущее время: Сегодня 09:50

Часовой пояс: GMT + 4



Вы не можете начинать темы
Вы не можете отвечать на сообщения
Вы не можете редактировать свои сообщения
Вы не можете удалять свои сообщения
Вы не можете голосовать в опросах
Вы не можете прикреплять файлы к сообщениям
Вы не можете скачивать файлы