Посвященный / The Giver ( Филлип Нойс / Phillip Noyce) [2014 г., фантастика, драма, WEB-DL 720p] iTunes

Ответить на тему
 
Автор
Сообщение

awk05 ®

Пол:

Стаж: 8 лет 9 месяцев

Сообщений: 1334

Репутация: 278 [+] [-]

Откуда: Западная Украина Ривне

Пост 23-Сен-2014 01:03

[Цитировать] 

--Посвященный / The Give«Он избран вернуть Судьбу»-- Год выхода: 2014
Жанр: фантастика, драма
Выпущено: США
Продолжительность: 01:37:12
Озвучивание: Дублированное + Original
Озвучка / Автор перевода: [iTunes]
Субтитры: отсутствуют--Режиссер: Филлип Нойс / Phillip Noyce--В ролях: Брентон Туэйтс (Jonas), Джефф Бриджес (The Giver), Мэрил Стрип (Chief Elder), Одейя Раш (Fiona), Кэти Холмс (Mother), Александр Скарсгард (Father), Камерон Монахэн (Asher), Тейлор Свифт (Rosemary), Ренате Стуурман (Dinah), Джон Уайтели (Elder), Катарина Дэмм (Nurturer), Ванесса Кук (Elder), и др.--О фильме: Юный Джонас живет в идеальном, максимально цивилизованном обществе будущего, где больше нет войн, боли, страданий, радости, воспоминаний. Для каждого члена здесь определен идеальный порядок существования, и теперь никому не приходится выбирать шаг, мысль, цвет — все вокруг однозначно серое… По решению Совета общества Джонас назначается Хранителем памяти, которую он должен перенять у Учителя по имени Дающий. Юноше открывается правда о настоящем мире, но чтобы освободить свой мир, он должен бросить ему вызов…
Качество видео: WEB-DL 720p
Формат видео: MKV
Видео кодек: AVC (High@L3.1)
Аудио кодек: AC-3
Видео: AVC, 1280x540 (2.35:1), 24.000 fps, 3 598 Kbps (0.217 bit/pixel)
Аудио: AC-3, 48.0 KHz, 6 ch, 384 Kbps, CBR, 16 bits [Русский] -- --

Знаете ли Вы, что...

  • Фильм снят по мотивам романа Лоис Лоури «Дающий» (The Giver, 1993).
  • Мэрил Стрип параллельно с этим фильмом снималась в фильме Роба Маршалла «Чем дальше в лес» (2014).
  • Певица Тейлор Свифт получила предложение сыграть Розмари через неделю после концерта в Лос-Анджелесе, на котором, как оказалось, побывали создатели фильма.
  • Съемки фильма проходили в Кейптауне, ЮАР.
  • Дианна Агрон пробовалась на роль в этом фильме.

Кадры из фильма

Тех. данные (MI)

Код:
Общее
Уникальный идентификатор                 : 243399702297234242039230238906799374430 (0xB71D13D7C16ACC33A7C9747BA2BC405E)
Полное имя                               : E:\тест\The.Giver.2014.D.WEB-DL.720p.mkv
Формат                                   : Matroska
Версия формата                           : Version 4 / Version 2
Размер файла                             : 2,76 Гбайт
Продолжительность                        : 1 ч. 37 м.
Общий поток                              : 4063 Кбит/сек
Дата кодирования                         : UTC 2014-09-22 19:20:14
Программа кодирования                    : mkvmerge v6.9.1 ('Blue Panther') 64bit built on Apr 18 2014 18:23:38
Библиотека кодирования                   : libebml v1.3.0 + libmatroska v1.4.1
Видео
Идентификатор                            : 1
Формат                                   : AVC
Формат/Информация                        : Advanced Video Codec
Профиль формата                          : Main@L3.1
Параметр CABAC формата                   : Нет
Параметр ReFrames формата                : 2 кадра
Идентификатор кодека                     : V_MPEG4/ISO/AVC
Продолжительность                        : 1 ч. 37 м.
Битрейт                                  : 3598 Кбит/сек
Ширина                                   : 1280 пикселей
Высота                                   : 540 пикселей
Соотношение сторон                       : 2,40:1
Режим частоты кадров                     : Постоянный
Частота кадров                           : 24,000 кадра/сек
Цветовое пространство                    : YUV
Субдискретизация насыщенности            : 4:2:0
Битовая глубина                          : 8 бит
Тип развёртки                            : Прогрессивная
Бит/(Пиксели*Кадры)                      : 0.217
Размер потока                            : 2,44 Гбайт (89%)
Язык                                     : English
Default                                  : Да
Forced                                   : Нет
Основные цвета                           : BT.709
Характеристики трансфера                 : BT.709
Коэффициенты матрицы                     : BT.709
Аудио
Идентификатор                            : 2
Формат                                   : AC-3
Формат/Информация                        : Audio Coding 3
Расширение режима                        : CM (complete main)
Параметр Endianness формата              : Big
Идентификатор кодека                     : A_AC3
Продолжительность                        : 1 ч. 37 м.
Вид битрейта                             : Постоянный
Битрейт                                  : 384 Кбит/сек
Каналы                                   : 6 каналов
Расположение каналов                     : Front: L C R, Side: L R, LFE
Частота                                  : 48,0 КГц
Битовая глубина                          : 16 бит
Метод сжатия                             : С потерями
Размер потока                            : 267 Мбайт (9%)
Язык                                     : Russian
Default                                  : Да
Forced                                   : Нет
Меню
00:00:00.000                             : en:Глава 1
00:06:46.000                             : en:Глава 2
00:12:35.000                             : en:Глава 3
00:19:28.000                             : en:Глава 4
00:26:11.000                             : en:Глава 5
00:30:39.000                             : en:Глава 6
00:36:25.000                             : en:Глава 7
00:41:22.000                             : en:Глава 8
00:46:28.000                             : en:Глава 9
00:51:19.000                             : en:Глава 10
00:56:19.000                             : en:Глава 11
01:01:07.000                             : en:Глава 12
01:06:51.000                             : en:Глава 13
01:12:23.000                             : en:Глава 14
01:18:03.000                             : en:Глава 15
01:23:11.000                             : en:Глава 16

_________________
[Торрент-статистика]
[Профиль]  [ЛС] 
Показать сообщения:    
Ответить на тему

Текущее время: Сегодня 12:30

Часовой пояс: GMT + 4



Вы не можете начинать темы
Вы не можете отвечать на сообщения
Вы не можете редактировать свои сообщения
Вы не можете удалять свои сообщения
Вы не можете голосовать в опросах
Вы не можете прикреплять файлы к сообщениям
Вы не можете скачивать файлы