Мизерере / La marque des anges - Miserere (Сильвен Уайт / Sylvain White) [2013 г., триллер, BDRip 720p]

Ответить на тему
 
Автор
Сообщение

awk05 ®

Пол:

Стаж: 8 лет 9 месяцев

Сообщений: 1334

Репутация: 278 [+] [-]

Откуда: Западная Украина Ривне

Пост 14-Май-2014 23:39

[Цитировать] 

--Мизерере / La marque des anges - Miserere-- Год выпуска: 2013 г.
Страна: Франция, Бельгия | Liaison Films, Pathé, TF1 Films Production |
Жанр: триллер
Продолжительность: 01:45:50
Перевод: Многоголосый закадровый, профессиональный [Лицензия]
Оригинальная аудиодорожка: французский
Cубтитры: нет--Режиссер: Сильвен Уайт / Sylvain White--В ролях: Жерар Депардье, Джои Старр, Рюдигер Фоглер, Элена Ногуэрра, Марта Келлер, Тьерри Лермитт, Кевин Меффр, Иван Франек, Жерар Шеллу, Джеймс Жерар--Описание: В армянском соборе Святого Иоанна Крестителя в Париже убит чилийский беженец Вильгельм Гетц, регент хора мальчиков и органист. Касдан, офицер полиции в отставке и прихожанин собора, немедленно начинает собственное неофициальное расследование. К нему присоединяется Волокин из отдела по защите прав несовершеннолетних. Оказывается, в прошлом исчезло несколько мальчиков из хоров, которыми руководил Гетц. За первым преступлением следуют еще более кровавые убийства. Между полным опасностей расследованием, в которое пускаются герои, и старинным хоралом «Мизерере» существует таинственная связь…--Качество видео:BDRip 720p
Формат видео: MKV
Видео кодек: AVC (High@L4.1)
Аудио кодек: AC3, DTS
Видео: 1280x536 (2,40:1), 23,976 кадра/сек, 4 392 Кбит/сек, (0.267 бит/пиксели*кадры)
Аудио 1: AC3, 6 каналов Front: L C R, Side: L R, LFE, 48,0 КГц, 448 Кбит/сек, 16 бит CBR[RUS]
Аудио 2: DTS, 6 каналов Front: L C R, Side: L R, LFE, 48,0 КГц, 1510 Кбит/сек, 24 бит CBR[FRE]-- --

Тех. данные (MI)

Уникальный идентификатор : 227418317689664480638846266896620696635 (0xAB172CBF4DDBB6F1A307AADA1577B43B)
Полное имя : H:\Miserere.2013.P.BDRip.720p.NNM-CLUB.mkv
Формат : Matroska
Версия формата : Version 2
Размер файла : 4,69 Гбайт
Продолжительность : 1 ч. 45 м.
Общий поток : 6348 Кбит/сек
Название фильма : Miserere.2013.P.BDRip.720p.NNM-CLUB
Дата кодирования : UTC 2014-04-07 21:32:06
Программа кодирования : mkvmerge v2.9.9 ('Tutu') built on Nov 25 2009 21:13:32
Библиотека кодирования : libebml v0.7.9 + libmatroska v0.8.1
Видео
Идентификатор : 1
Формат : AVC
Формат/Информация : Advanced Video Codec
Профиль формата : High@L4.1
Параметр CABAC формата : Да
Параметр ReFrames формата : 5 кадров
Идентификатор кодека : V_MPEG4/ISO/AVC
Продолжительность : 1 ч. 45 м.
Битрейт : 4392 Кбит/сек
Ширина : 1280 пикселей
Высота : 536 пикселей
Соотношение сторон : 2,40:1
Режим частоты кадров : Постоянный
Частота кадров : 23,976 кадра/сек
Цветовое пространство : YUV
Субдискретизация насыщенности : 4:2:0
Битовая глубина : 8 бит
Тип развёртки : Прогрессивная
Бит/(Пиксели*Кадры) : 0.267
Размер потока : 3,15 Гбайт (67%)
Заголовок : -=Release for NNM-CLUB.RU=-
Библиотека кодирования : x264 core 140 r2377 1ca7bb9
Настройки программы : cabac=1 / ref=5 / deblock=1:0:0 / analyse=0x3:0x133 / me=umh / subme=8 / psy=1 / psy_rd=1.00:0.00 / mixed_ref=1 / me_range=16 / chroma_me=1 / trellis=1 / 8x8dct=1 / cqm=0 / deadzone=21,11 / fast_pskip=0 / chroma_qp_offset=-2 / threads=24 / lookahead_threads=4 / sliced_threads=0 / nr=0 / decimate=1 / interlaced=0 / bluray_compat=0 / constrained_intra=0 / bframes=3 / b_pyramid=2 / b_adapt=1 / b_bias=0 / direct=1 / weightb=1 / open_gop=0 / weightp=2 / keyint=250 / keyint_min=23 / scenecut=40 / intra_refresh=0 / rc=2pass / mbtree=0 / bitrate=4392 / ratetol=1.0 / qcomp=0.60 / qpmin=0 / qpmax=69 / qpstep=4 / cplxblur=20.0 / qblur=0.5 / ip_ratio=1.40 / pb_ratio=1.30 / aq=1:1.00
Язык : English
Default : Нет
Forced : Нет
Аудио #1
Идентификатор : 2
Формат : AC-3
Формат/Информация : Audio Coding 3
Расширение режима : CM (complete main)
Параметр Endianness формата : Big
Идентификатор кодека : A_AC3
Продолжительность : 1 ч. 45 м.
Вид битрейта : Постоянный
Битрейт : 448 Кбит/сек
Каналы : 6 каналов
Расположение каналов : Front: L C R, Side: L R, LFE
Частота : 48,0 КГц
Битовая глубина : 16 бит
Метод сжатия : С потерями
Размер потока : 339 Мбайт (7%)
Заголовок : AC3.448.Kbps (6ch) Russian (MVO)
Язык : Russian
Default : Да
Forced : Нет
Аудио #2
Идентификатор : 3
Формат : DTS
Формат/Информация : Digital Theater Systems
Режим : 16
Параметр Endianness формата : Big
Идентификатор кодека : A_DTS
Продолжительность : 1 ч. 45 м.
Вид битрейта : Постоянный
Битрейт : 1509 Кбит/сек
Каналы : 6 каналов
Расположение каналов : Front: L C R, Side: L R, LFE
Частота : 48,0 КГц
Битовая глубина : 24 бит
Метод сжатия : С потерями
Задержка видео : 11 мс.
Размер потока : 1,12 Гбайт (24%)
Заголовок : DTS.1509.Kbps (6ch) French
Язык : French
Default : Нет
Forced : Нет
Текст
Идентификатор : 4
Формат : UTF-8
Идентификатор кодека : S_TEXT/UTF8
Идентификатор кодека/Информация : UTF-8 Plain Text
Заголовок : Russian (Full)
Язык : Russian
Default : Да
Forced : Нет
Меню
00:00:00.000 : en:00:00:00.000
00:10:45.937 : en:00:10:45.937
00:20:18.426 : en:00:20:18.426
00:31:43.902 : en:00:31:43.902
00:42:48.191 : en:00:42:48.191
00:54:34.313 : en:00:54:34.313
01:04:00.503 : en:01:04:00.503
01:14:02.021 : en:01:14:02.021
01:23:35.552 : en:01:23:35.552
01:31:06.628 : en:01:31:06.628
01:41:35.131 : en:01:41:35.131

Скриншоты



_________________
[Торрент-статистика]
[Профиль]  [ЛС] 
Показать сообщения:    
Ответить на тему

Текущее время: Сегодня 11:17

Часовой пояс: GMT + 4



Вы не можете начинать темы
Вы не можете отвечать на сообщения
Вы не можете редактировать свои сообщения
Вы не можете удалять свои сообщения
Вы не можете голосовать в опросах
Вы не можете прикреплять файлы к сообщениям
Вы не можете скачивать файлы