Колония / The Colony (Джефф Ренфро / Jeff Renfroe) [2013 г., ужасы, фантастика, боевик, BDRip 1080p] Dub [Лицензия] + DVO + 2 AVO + Original (ENG) + Subs (RUS, ENG)

Ответить на тему
 
Автор
Сообщение

TiZAr ®

Пол:

Стаж: 7 лет 7 месяцев

Сообщений: 815

Репутация: 1160 [+] [-]

Откуда: Россия

Пост 26-Фев-2014 05:05

[Цитировать] 

Колония / The Colony
«Они выжили после апокалипсиса. Но не только они»
- Год выпуска: 2013
Страна: Канада / Alcina Pictures, Item 7, Mad Samurai Productions
Жанр: ужасы, фантастика, боевик
Продолжительность: 01:34:26
Перевод #1: Профессиональный (полное дублирование)
Качество перевода: Лицензия
Перевод #2: Любительский (одноголосый) [den904]
Перевод #3: Любительский (двухголосый, закадровый) [Пираты]
Перевод #4: Любительский (одноголосый) [Вадим Белов]
Cубтитры: русские, английские
Оригинальная аудиодорожка: английская
Навигация по главам: Есть
Режиссер: Джефф Ренфро / Jeff Renfroe
Оффициальный сайт фильма- -В ролях:
Кевин Зегерс, Лоренс Фишбёрн, Шарлотта Салливан, Билл Пэкстон, Аттикус Дин Митчелл, Дрю Вигевер, Джулиан Ричингс, Джон Тенч, Майкл Мэндо, Романо Орцари, Лиза Берри, Люсиус Хойос, Кимберли-Сью Мюррэй, Хелен Тейлор, Джон Хили и др.
Описание:
Постапокалиптический фантастический боевик про людей, пытающихся выжить после природного катаклизма, покрывшего Землю ледяной коркой. Часть выживших обитают в Колонии 7 и поддерживают связь с другими уцелевшими из Колонии 5. После того, как контакт с ними теряется, часть людей отправляется в опасную экспедицию, чтобы выяснить, что произошло с их соседями. Но то, что они найдут превзойдёт все их самые худьшие ожидания…
Тип релиза: BDRip 1080p
Контейнер: MKV
Видео: AVC, 1920x816 (2.35:1), 23.976 fps, 8 384 Kbps (0.223 bit/pixel)
Аудио #1: AC-3, 48.0 KHz, 6 ch, 384 Kbps, CBR (Russian) Dub [Лицензия]
Аудио #2: AC-3, 48.0 KHz, 2 ch, 192 Kbps, CBR (Russian) AVO [den904]
Аудио #3: AC-3, 48.0 KHz, 2 ch, 192 Kbps, CBR (Russian) DVO [Пираты]
Аудио #4: AC-3, 48.0 KHz, 2 ch, 192 Kbps, CBR (Russian) AVO [Вадим Белов]
Аудио #5: DTS, 48.0 KHz, 6 ch, 1 510 Kbps, CBR (English) - Original

MI

Код:
General
Unique ID                                : 233044882511838307339545565099700957408 (0xAF52CFCF9B4AC71FA10D788A92D2B0E0)
Complete name                            : E:\downloads\The Colony.2013.BDRip.1080p.mkv
Format                                   : Matroska
Format version                           : Version 2
File size                                : 7.15 GiB
Duration                                 : 1h 34mn
Overall bit rate                         : 10.8 Mbps
Movie name                               : Колония / The Colony.2013.BDRip.1080p-Feel_1984
Encoded date                             : UTC 2014-02-23 15:11:14
Writing application                      : mkvmerge v6.7.0 ('Back to the Ground') 64bit built on Jan  8 2014 15:10:52
Writing library                          : libebml v1.3.0 + libmatroska v1.4.1
Video
ID                                       : 1
Format                                   : AVC
Format/Info                              : Advanced Video Codec
Format profile                           : High@L4.1
Format settings, CABAC                   : Yes
Format settings, ReFrames                : 5 frames
Codec ID                                 : V_MPEG4/ISO/AVC
Duration                                 : 1h 34mn
Bit rate                                 : 8 384 Kbps
Width                                    : 1 920 pixels
Height                                   : 816 pixels
Display aspect ratio                     : 2.35:1
Frame rate mode                          : Constant
Frame rate                               : 23.976 fps
Color space                              : YUV
Chroma subsampling                       : 4:2:0
Bit depth                                : 8 bits
Scan type                                : Progressive
Bits/(Pixel*Frame)                       : 0.223
Stream size                              : 5.38 GiB (75%)
Title                                    : The.Colony.2013.BluRay.1080p.DTS.x264-CHD
Writing library                          : x264 core 138 r2358 9e941d1
Encoding settings                        : cabac=1 / ref=5 / deblock=1:-3:-3 / analyse=0x3:0x113 / me=umh / subme=10 / psy=1 / psy_rd=1.10:0.10 / mixed_ref=1 / me_range=48 / chroma_me=1 / trellis=2 / 8x8dct=1 / cqm=0 / deadzone=21,11 / fast_pskip=0 / chroma_qp_offset=-2 / threads=12 / lookahead_threads=1 / sliced_threads=0 / nr=0 / decimate=1 / interlaced=0 / bluray_compat=0 / constrained_intra=0 / bframes=5 / b_pyramid=2 / b_adapt=2 / b_bias=0 / direct=3 / weightb=1 / open_gop=0 / weightp=2 / keyint=250 / keyint_min=23 / scenecut=40 / intra_refresh=0 / rc=2pass / mbtree=0 / bitrate=8384 / ratetol=2.0 / qcomp=0.70 / qpmin=0 / qpmax=69 / qpstep=4 / cplxblur=20.0 / qblur=0.5 / ip_ratio=1.40 / pb_ratio=1.30 / aq=2:1.00
Language                                 : English
Default                                  : Yes
Forced                                   : No
Audio #1
ID                                       : 2
Format                                   : AC-3
Format/Info                              : Audio Coding 3
Mode extension                           : CM (complete main)
Format settings, Endianness              : Big
Codec ID                                 : A_AC3
Duration                                 : 1h 34mn
Bit rate mode                            : Constant
Bit rate                                 : 384 Kbps
Channel count                            : 6 channels
Channel positions                        : Front: L C R, Side: L R, LFE
Sampling rate                            : 48.0 KHz
Bit depth                                : 16 bits
Compression mode                         : Lossy
Stream size                              : 259 MiB (4%)
Title                                    : R5
Language                                 : Russian
Default                                  : Yes
Forced                                   : No
Audio #2
ID                                       : 3
Format                                   : AC-3
Format/Info                              : Audio Coding 3
Mode extension                           : CM (complete main)
Format settings, Endianness              : Big
Codec ID                                 : A_AC3
Duration                                 : 1h 34mn
Bit rate mode                            : Constant
Bit rate                                 : 192 Kbps
Channel count                            : 2 channels
Channel positions                        : Front: L R
Sampling rate                            : 48.0 KHz
Bit depth                                : 16 bits
Compression mode                         : Lossy
Stream size                              : 130 MiB (2%)
Title                                    : [den904]
Language                                 : Russian
Default                                  : No
Forced                                   : No
Audio #3
ID                                       : 4
Format                                   : AC-3
Format/Info                              : Audio Coding 3
Mode extension                           : CM (complete main)
Format settings, Endianness              : Big
Codec ID                                 : A_AC3
Duration                                 : 1h 34mn
Bit rate mode                            : Constant
Bit rate                                 : 192 Kbps
Channel count                            : 2 channels
Channel positions                        : Front: L R
Sampling rate                            : 48.0 KHz
Bit depth                                : 16 bits
Compression mode                         : Lossy
Stream size                              : 130 MiB (2%)
Title                                    : ["Пираты"]
Language                                 : Russian
Default                                  : No
Forced                                   : No
Audio #4
ID                                       : 5
Format                                   : AC-3
Format/Info                              : Audio Coding 3
Mode extension                           : CM (complete main)
Format settings, Endianness              : Big
Codec ID                                 : A_AC3
Duration                                 : 1h 34mn
Bit rate mode                            : Constant
Bit rate                                 : 192 Kbps
Channel count                            : 2 channels
Channel positions                        : Front: L R
Sampling rate                            : 48.0 KHz
Bit depth                                : 16 bits
Compression mode                         : Lossy
Stream size                              : 130 MiB (2%)
Title                                    : [Вадим Белов]
Language                                 : Russian
Default                                  : No
Forced                                   : No
Audio #5
ID                                       : 6
Format                                   : DTS
Format/Info                              : Digital Theater Systems
Mode                                     : 16
Format settings, Endianness              : Big
Codec ID                                 : A_DTS
Duration                                 : 1h 34mn
Bit rate mode                            : Constant
Bit rate                                 : 1 509 Kbps
Channel count                            : 6 channels
Channel positions                        : Front: L C R, Side: L R, LFE
Sampling rate                            : 48.0 KHz
Bit depth                                : 24 bits
Compression mode                         : Lossy
Delay relative to video                  : 11ms
Stream size                              : 1 019 MiB (14%)
Title                                    : English DTS 5.1 1509Kbps
Language                                 : English
Default                                  : No
Forced                                   : No
Text
ID                                       : 7
Format                                   : UTF-8
Codec ID                                 : S_TEXT/UTF8
Codec ID/Info                            : UTF-8 Plain Text
Language                                 : Russian
Default                                  : No
Forced                                   : No
Menu
00:00:00.000                             : en:00:00:00.000
00:05:53.728                             : en:00:05:53.728
00:10:33.591                             : en:00:10:33.591
00:16:26.986                             : en:00:16:26.986
00:22:16.710                             : en:00:22:16.710
00:29:13.001                             : en:00:29:13.001
00:34:23.770                             : en:00:34:23.770
00:41:45.461                             : en:00:41:45.461
00:46:29.829                             : en:00:46:29.829
00:51:49.940                             : en:00:51:49.940
00:56:46.403                             : en:00:56:46.403
01:04:19.856                             : en:01:04:19.856
01:12:08.950                             : en:01:12:08.950
01:16:49.480                             : en:01:16:49.480
01:21:19.416                             : en:01:21:19.416
01:25:46.391                             : en:01:25:46.391

Скриншоты



_________________
Не стоит обращать внимания на отсутствие сидов на моих раздачах. Все мои релизы мультитрекерные - нет сидов, включите DHT.
За релизами в HD качестве обращайтесь в личку, либо отписывайтесь в теме.
[Торрент-статистика]
[Профиль]  [ЛС] 
Показать сообщения:    
Ответить на тему

Текущее время: Сегодня 10:56

Часовой пояс: GMT + 4



Вы не можете начинать темы
Вы не можете отвечать на сообщения
Вы не можете редактировать свои сообщения
Вы не можете удалять свои сообщения
Вы не можете голосовать в опросах
Вы не можете прикреплять файлы к сообщениям
Вы не можете скачивать файлы